Важное объявление!
У Нас Все раздачи мультитрекерные, при нуле пиров в релизах, можете смело вставать на закачку!
Статистика раздачи
Размер:     |    Зарегистрирован:     |    Скачан:     |   
Нет
 
     
 
 
Автор Сообщение

HUNTER

Стаж:
5 лет
Сообщений:
67945

Репутация: 101

[+] [-]
Вне форума [Профиль] [ЛС]

Зверополис / Zootopia
Страна: США
Жанр: мультфильм, боевик, комедия, приключения, семейный
Продолжительность: 01:48:44
Год выпуска: 2016
Перевод: Профессиональный (дублированный) BD CEE
Русские субтитры: нет
Режиссёр: Байрон Ховард / Byron Howard, Рич Мур / Rich Moore, Джаред Буш / Jared Bush
Роли озвучивали: Джиннифер Гудвин (Judy Hopps, озвучка), Джейсон Бейтман (Nick Wilde, озвучка), Идрис Эльба (Chief Bogo, озвучка), Дженни Слейт (Bellwether, озвучка), Нейт Торренс (Clawhauser, озвучка), Бонни Хант (Bonnie Hopps, озвучка), Дон Лейк (Stu Hopps, озвучка), Томми Чонг (Yax, озвучка), Дж.К. Симмонс (Mayor Lionheart, озвучка), Октавия Спенсер (Mrs. Otterton, озвучка), Алан Тьюдик (Duke Weaselton, озвучка), Шакира (Gazelle, озвучка)
Описание: Добро пожаловать в Зверополис - современный город, населенный самыми разными животными, от огромных слонов до крошечных мышек. Зверополис разделен на районы, полностью повторяющие естественную среду обитания разных жителей - здесь есть и элитный район Площадь Сахары и неприветливый Тундратаун. В этом городе появляется новый офицер полиции, жизнерадостная зайчиха Джуди Хоппс, которая с первых дней работы понимает, как сложно быть маленькой и пушистой среди больших и сильных полицейских. Джуди хватается за первую же возможность проявить себя, несмотря на то, что ее партнером будет болтливый хитрый лис Ник Уайлд. Вдвоем им предстоит раскрыть сложное дело, от которого будет зависеть судьба всех обитателей Зверополиса.
Релиз от Megapeer
Локализованный русский видеоряд

Семпл
Качество: HDRip
Формат: AVI
Видео: 688x288 (2.39:1), 23.976 fps, XviD build 73 ~825 kbps avg, 0.17 bit/pixel
Аудио: 48 kHz, MPEG Layer 3, 2 ch, ~128.00 kbps avg - BD CEE
Субтитры: отсутствуют

Подробные технические данные

ОбщееПолное имя : D:\Zootopia.2016.HDRip.745MB.Loc.Dub.MegaPeer.aviФормат : AVIФормат/Информация : Audio Video InterleaveРазмер файла : 746 МбайтПродолжительность : 1 ч. 48 м.Общий поток : 959 Кбит/сек
ВидеоИдентификатор : 0Формат : MPEG-4 VisualПрофиль формата : Advanced Simple@L5Параметр BVOP формата : 1Параметр QPel формата : НетПараметр GMC формата : Без точки переходаПараметр матрицы формата : ВыборочнаяИдентификатор кодека : XVIDИдентификатор кодека/Подсказка : XviDПродолжительность : 1 ч. 48 м.Битрейт : 825 Кбит/секШирина : 688 пикселейВысота : 288 пикселейСоотношение сторон : 2,40:1Частота кадров : 23,976 (24000/1001) кадра/секЦветовое пространство : YUVСубдискретизация насыщенности : 4:2:0Битовая глубина : 8 битТип развёртки : ПрогрессивнаяМетод сжатия : С потерямиБит/(Пиксели*Кадры) : 0.174Размер потока : 641 Мбайт (86%)Библиотека кодирования : XviD 73
АудиоИдентификатор : 1Формат : MPEG AudioВерсия формата : Version 1Профиль формата : Layer 3Режим : Joint stereoРасширение режима : MS StereoИдентификатор кодека : 55Идентификатор кодека/Подсказка : MP3Продолжительность : 1 ч. 48 м.Вид битрейта : ПостоянныйБитрейт : 128 Кбит/секКаналы : 2 каналаЧастота : 48,0 КГцМетод сжатия : С потерямиРазмер потока : 99,6 Мбайт (13%)Выравнивание : Соединение по промежуткамПродолжительность промежутка : 167 мс. (4,00 видеокадра)Время предзагрузки промежутка : 216 мс.Заголовок : BD CEEБиблиотека кодирования : LAME3.99rНастройки программы : -m j -V 4 -q 2 -lowpass 17 -b 128

Скриншоты


_________________
Показать сообщения:    

Текущее время: Сегодня 06:39

Часовой пояс: GMT



Вы не можете начинать темы
Вы не можете отвечать на сообщения
Вы не можете редактировать свои сообщения
Вы не можете удалять свои сообщения
Вы не можете голосовать в опросах
Вы не можете прикреплять файлы к сообщениям
Вы не можете скачивать файлы