Ивановский Торрент трекер
Яндекс.Погода
 

[Цитировать]
HUNTER

Звездочет из города N
Дата/Год выпуска: 2016
Страна: Россия, производство ГТРК "Дон-ТР"
Жанр: биография, документальный, космос, люди, наука
Продолжительность: 00:23:47
Перевод: Не требуется
Русские субтитры: нет
Оригинальная аудиодорожка: русский
Режиссер: Марина Дружинина
Телеканал: КультураОписание: Больше 30 лет герой фильма учит детей смотреть на звезды. Директор обсерватории Валерий Тупицын в 1979 году построил со студентами пединститута небольшой астрономический ковчег. И с тех пор калитка маленького ЦУПа открыта для тех, кто любит и интересуется астрономией.Сэмпл: https://www.sendspace.com/file/hitesh
качество: SATRip
формат: AVI
Видео: Xvid 704x400 (16:9) 25fps ~1536kbps
Аудио: MP3 48000Hz stereo 192kbps

MediaInfo

GeneralComplete name : F:\Звездочет из города N\Звездочет из города N.aviFormat : AVIFormat/Info : Audio Video InterleaveFile size : 295 MiBDuration : 23mn 47sOverall bit rate : 1 730 Kbps
VideoID : 0Format : MPEG-4 VisualFormat profile : Advanced Simple@L5Format settings, BVOP : 2Format settings, QPel : NoFormat settings, GMC : No warppointsFormat settings, Matrix : Default (H.263)Codec ID : XVIDCodec ID/Hint : XviDDuration : 23mn 47sBit rate : 1 528 KbpsWidth : 704 pixelsHeight : 400 pixelsDisplay aspect ratio : 16:9Frame rate : 25.000 fpsColor space : YUVChroma subsampling : 4:2:0Bit depth : 8 bitsScan type : ProgressiveCompression mode : LossyBits/(Pixel*Frame) : 0.217Stream size : 260 MiB (88%)Writing library : XviD 64
AudioID : 1Format : MPEG AudioFormat version : Version 1Format profile : Layer 3Mode : Joint stereoMode extension : MS StereoCodec ID : 55Codec ID/Hint : MP3Duration : 23mn 47sBit rate mode : ConstantBit rate : 192 KbpsChannel(s) : 2 channelsSampling rate : 48.0 KHzCompression mode : LossyStream size : 32.7 MiB (11%)Alignment : Split accross interleavesInterleave, duration : 40 ms (1.00 video frame)Interleave, preload duration : 500 ms

Скриншоты



Показать сообщения:    

Текущее время: 14-Дек 08:26

Часовой пояс: UTC ± 0


Вы не можете начинать темы
Вы не можете отвечать на сообщения
Вы не можете редактировать свои сообщения
Вы не можете удалять свои сообщения
Вы не можете голосовать в опросах
Вы не можете прикреплять файлы к сообщениям
Вы не можете скачивать файлы

!ВНИМАНИЕ!
Сайт не предоставляет электронные версии произведений, а занимается лишь коллекционированием и каталогизацией ссылок, присылаемых и публикуемых на форуме нашими читателями. Если вы являетесь правообладателем какого-либо представленного материала и не желаете, чтобы ссылка на него находилась в нашем каталоге, свяжитесь с нами, и мы незамедлительно удалим ее. Файлы для обмена на трекере предоставлены пользователями сайта, и администрация не несет ответственности за их содержание. Просьба не заливать файлы, защищенные авторскими правами, а также файлы нелегального содержания!