Важное объявление!
У Нас Все раздачи мультитрекерные, при нуле пиров в релизах, можете смело вставать на закачку!
Статистика раздачи
Размер:     |    Зарегистрирован:     |    Скачан:     |   
Нет
 
     
 
 
Автор Сообщение

Karinka

Стаж:
4 года 11 месяцев
Сообщений:
50

Репутация: 9

[+] [-]
Вне форума [Профиль] [ЛС]

Звездный десант: Вторжение / Starship Troopers: Invasion
Страна: США
Жанр: мультфильм, фантастика, боевик
Год выпуска: 2012
Продолжительность: 01:28:13
Перевод: Профессиональный (многоголосый) лицензия
Cубтитры: нет
Оригинальная аудиодорожка: нет
Режиссер: Синдзи Арамаки / Sindzi Armaki
В ролях: Гретчен Лодж, Джонни Льюис, Александра Холден, Филд Бловелт, Кен Арнольд, Тони Эллис, Лоурен Лакис, Кэти Фостер, Дэниэл Росс, Тодд Райан Джонс...
Описание: После того, как был покинут отдаленный форпост Федерации, Форт Кейси, Карл Дженкинс отправляется на разведку и исчезает в туманности. Закаленные во множественных боях солдаты могут своими действиями принести на Землю смерть человечества, а могут и наоборот его спасти. Третьего не дано.- -Исходник: BDRip 720p
Качество: HDRip
Формат: AVI
Видео: 720x400 (16:9), 23.976 fps, XVID ~ 1820 kbps avg, 0.264 bit/pixel
Аудио: 48 kHz, AC3, 6 ch, 448 kbps
Раздача от:

MediaInfo

General
Complete name : Zvezdnuy.Desant.Vtorjenie.2012.P.HDRip.1400Mb.avi
Format : AVI
Format/Info : Audio Video Interleave
File size : 1.41 GiB
Duration : 1h 28mn
Overall bit rate : 2 277 Kbps
Writing application : VirtualDubMod 1.5.10.2 (build 2540/release)
Writing library : VirtualDubMod build 2540/release
Video
ID : 0
Format : MPEG-4 Visual
Format profile : Advanced Simple@L5
Format settings, BVOP : 2
Format settings, QPel : No
Format settings, GMC : No warppoints
Format settings, Matrix : Default (H.263)
Codec ID : XVID
Codec ID/Hint : XviD
Duration : 1h 28mn
Bit rate : 1 820 Kbps
Width : 720 pixels
Height : 400 pixels
Display aspect ratio : 16:9
Frame rate : 23.976 fps
Color space : YUV
Chroma subsampling : 4:2:0
Bit depth : 8 bits
Scan type : Progressive
Compression mode : Lossy
Bits/(Pixel*Frame) : 0.264
Stream size : 1.13 GiB (80%)
Writing library : XviD 1.2.1 (UTC 2008-12-04)
Audio
ID : 1
Format : AC-3
Format/Info : Audio Coding 3
Mode extension : CM (complete main)
Format settings, Endianness : Big
Codec ID : 2000
Duration : 1h 28mn
Bit rate mode : Constant
Bit rate : 448 Kbps
Channel(s) : 6 channels
Channel positions : Front: L C R, Side: L R, LFE
Sampling rate : 48.0 KHz
Bit depth : 16 bits
Compression mode : Lossy
Stream size : 285 MiB (20%)
Alignment : Split accross interleaves
Interleave, duration : 42 ms (1.00 video frame)
Interleave, preload duration : 500 ms

Скриншоты


_________________
Молодая, стройная, сексуальная, никого не ищу -просто хвастаюсь!)))))))) ​
Показать сообщения:    

Текущее время: Сегодня 00:47

Часовой пояс: GMT



Вы не можете начинать темы
Вы не можете отвечать на сообщения
Вы не можете редактировать свои сообщения
Вы не можете удалять свои сообщения
Вы не можете голосовать в опросах
Вы не можете прикреплять файлы к сообщениям
Вы не можете скачивать файлы