Важное объявление!
У Нас Все раздачи мультитрекерные, при нуле пиров в релизах, можете смело вставать на закачку!
Статистика раздачи
Размер:     |    Зарегистрирован:     |    Скачан:     |   
Нет
 
     
 
 
Автор Сообщение

HUNTER

Стаж:
5 лет
Сообщений:
68415

Репутация: 101

[+] [-]
Вне форума [Профиль] [ЛС]

Звездные войны: Сага / Star Wars: The Complete Saga (1977-2005)-Релиз от HQCLUBЗвездные войны: Эпизод 1 - Скрытая угроза / Star Wars: Episode I - The Phantom Menace-
Год выпуска: 1999
Выпущено: США
Продолжительность: 02:16:10
Жанр: фантастика, приключения, боевик
Перевод: Профессиональный (полное дублирование)
+ Оригинальная звуковая дорожка
Cубтитры: русские (инопланетная речь), русские (полные), английские (srt)-Режиссер: Джордж Лукас / George Lucas
В ролях: Лиам Нисон, Юэн МакГрегор, Натали Портман, Джейк Ллойд, Иэн МакДайармид, Пернилла Аугуст, Оливер Форд Дэвис, Хью Куарши, Ахмед Бест, Энтони Дэниелс, Сэмюэл Л. Джексон, София Коппола, Кира Найтли
О фильме: Мирная и процветающая планета Набу. Торговая федерация, не желая платить налоги, вступает в прямой конфликт с королевой Амидалой, правящей на планете, что приводит к войне. На стороне королевы и республики в ней участвуют два рыцаря-джедая: учитель и ученик, Квай-Гон-Джин и Оби-Ван Кеноби…-Релиз:
Автор: DenisNN
Качество: BDRip (источник: / Blu-ray Disc CEE/ 1080p)
Формат: mkv
Видео: 1024x436 (2,35:1), 23.976 fps, x264@L4.1, 2pass, ~1652 kbps avg
Аудио: 1 48 kHz, AC3 Dolby Digital, 3/2 (L,C,R,l,r) + LFE ch, ~448.00 kbps avg rus
Аудио: 2 48 kHz, AC3 Dolby Digital, 3/2 (L,C,R,l,r) + LFE ch, ~448.00 kbps avg eng
-

MInfo


Формат : Matroska
Версия формата : Version 2
Размер файла : 2,60 Гбайт
Продолжительность : 2 ч. 4 м.
Общий поток : 2984 Кбит/сек
Дата кодирования : UTC 2011-09-28 12:42:33
Программа кодирования : mkvmerge v4.9.1 ('Ich will') сборка от Jul 11 2011 23:53:15
Библиотека кодирования : libebml v1.2.1 + libmatroska v1.1.1
Видео
Идентификатор : 1
Формат : AVC
Формат/Информация : Advanced Video Codec
Профиль формата : High@L4.1
Параметр CABAC формата : Да
Параметр ReFrames формата : 8 кадров
Идентификатор кодека : V_MPEG4/ISO/AVC
Продолжительность : 2 ч. 4 м.
Битрейт : 2086 Кбит/сек
Ширина : 1024 пикселя
Высота : 436 пикселей
Соотношение сторон : 2,35:1
Частота кадров : 23,976 кадра/сек
Цветовое пространство : YUV
Субдискретизация насыщенности : 4:2:0
Битовая глубина : 8 бит
Тип развёртки : Прогрессивная
Бит/(Пиксели*Кадры) : 0.195
Размер потока : 1,77 Гбайт (68%)
Заголовок : Rip by DenisNN
Библиотека кодирования : x264 core 116 r2074 2641b9e
Настройки программы : cabac=1 / ref=8 / deblock=1:3:3 / analyse=0x3:0x133 / me=umh / subme=10 / psy=1 / psy_rd=1.00:0.00 / mixed_ref=1 / me_range=32 / chroma_me=1 / trellis=2 / 8x8dct=1 / cqm=0 / deadzone=21,11 / fast_pskip=0 / chroma_qp_offset=3 / threads=3 / sliced_threads=0 / nr=0 / decimate=1 / interlaced=0 / bluray_compat=0 / constrained_intra=0 / bframes=7 / b_pyramid=2 / b_adapt=2 / b_bias=0 / direct=3 / weightb=1 / open_gop=0 / weightp=2 / keyint=250 / keyint_min=23 / scenecut=40 / intra_refresh=0 / rc=2pass / mbtree=0 / bitrate=2086 / ratetol=1.0 / qcomp=0.60 / qpmin=10 / qpmax=51 / qpstep=4 / cplxblur=20.0 / qblur=0.5 / ip_ratio=1.40 / pb_ratio=1.30 / aq=2:1.00
Язык : English
Аудио #1
Идентификатор : 2
Формат : AC-3
Формат/Информация : Audio Coding 3
Расширение режима : CM (complete main)
Идентификатор кодека : A_AC3
Продолжительность : 2 ч. 4 м.
Вид битрейта : Постоянный
Битрейт : 448 Кбит/сек
Каналы : 6 каналов
Расположение каналов : Front: L C R, Side: L R, LFE
Частота : 48,0 КГц
Битовая глубина : 16 бит
Метод сжатия : С потерями
Размер потока : 400 Мбайт (15%)
Заголовок : CEE дубляж
Язык : Russian
Аудио #2
Идентификатор : 3
Формат : AC-3
Формат/Информация : Audio Coding 3
Расширение режима : CM (complete main)
Идентификатор кодека : A_AC3
Продолжительность : 2 ч. 4 м.
Вид битрейта : Постоянный
Битрейт : 448 Кбит/сек
Каналы : 6 каналов
Расположение каналов : Front: L C R, Side: L R, LFE
Частота : 48,0 КГц
Битовая глубина : 16 бит
Метод сжатия : С потерями
Размер потока : 400 Мбайт (15%)
Заголовок : Английский
Язык : English
Текст #1
Идентификатор : 4
Формат : UTF-8
Идентификатор кодека : S_TEXT/UTF8
Идентификатор кодека/Информация : UTF-8 Plain Text
Заголовок : Русские Forced
Язык : Russian
Текст #2
Идентификатор : 5
Формат : UTF-8
Идентификатор кодека : S_TEXT/UTF8
Идентификатор кодека/Информация : UTF-8 Plain Text
Заголовок : Русские Full
Язык : Russian
Меню
00:00:00.000 : :Chapter 01
00:00:21.021 : :Chapter 03
00:01:53.404 : :Chapter 05
00:04:52.792 : :Chapter 07
00:07:28.281 : :Chapter 09
00:08:54.867 : :Chapter 11
00:11:21.389 : :Chapter 13
00:15:40.230 : :Chapter 15
00:19:40.178 : :Chapter 17
00:23:33.203 : :Chapter 19
00:25:32.614 : :Chapter 21
00:27:45.497 : :Chapter 23
00:29:12.709 : :Chapter 25
00:32:34.077 : :Chapter 27
00:34:53.007 : :Chapter 29
00:36:54.211 : :Chapter 31
00:39:05.634 : :Chapter 33
00:41:42.291 : :Chapter 35
00:42:31.548 : :Chapter 37
00:44:51.730 : :Chapter 39
00:47:52.619 : :Chapter 41
00:49:57.994 : :Chapter 43
00:51:13.695 : :Chapter 45
00:52:40.740 : :Chapter 47
00:54:12.332 : :Chapter 49
00:56:59.916 : :Chapter 51
00:59:14.175 : :Chapter 53
01:03:10.828 : :Chapter 55
01:06:16.472 : :Chapter 57
01:08:21.972 : :Chapter 59
01:12:32.389 : :Chapter 61
01:14:12.656 : :Chapter 63
01:17:13.712 : :Chapter 65
01:19:09.327 : :Chapter 67
01:21:29.384 : :Chapter 69
01:25:00.220 : :Chapter 71
01:27:02.091 : :Chapter 73
01:29:56.182 : :Chapter 75
01:33:48.456 : :Chapter 77
01:36:39.877 : :Chapter 79
01:38:06.755 : :Chapter 81
01:39:37.513 : :Chapter 83
01:41:24.995 : :Chapter 85
01:42:37.401 : :Chapter 87
01:45:02.629 : :Chapter 89
01:49:42.784 : :Chapter 91
01:55:18.911 : :Chapter 93
01:57:47.393 : :Chapter 95
01:58:28.518 : :Chapter 97
02:00:14.498 : :Chapter 99
02:04:44.476 : :Chapter 100

-

Кадры из фильма

-Звездные войны: Эпизод 2 - Атака клонов / Star Wars: Episode II - Attack of the Clones-
Год выпуска: 2002
Выпущено: США
Продолжительность: 02:22:27
Жанр: фантастика, приключения, боевик
Перевод: Профессиональный (полное дублирование)
+ Оригинальная звуковая дорожка
Cубтитры: русские (инопланетная речь), русские (полные), английские (srt)-Режиссер: Джордж Лукас / George Lucas
В ролях: Юэн МакГрегор, Натали Портман, Хейден Кристенсен, Кристофер Ли, Сэмюэл Л. Джексон, Фрэнк Оз, Иэн МакДайармид, Пернилла Аугуст, Темуэра Моррисон, Дэниэл Логан
О фильме: Действие разворачивается через 10 лет после событий, описанных в первом эпизоде знаменитой саги. Республика все глубже погружается в пучину противоречий и хаоса. Движение сепаратистов, представленное сотнями планет и могущественным альянсом корпораций, грозит стать новой угрозой для Галактики, с которой не смогут справиться даже джедаи. Назревающий конфликт, заранее спланированный могущественными, но пока еще не разоблаченными силами, ведет к началу Клонических войн и к закату республики. Чтобы противостоять угрозе вселенских масштабов, Верховный канцлер Палпатин добивается консолидации власти в республике в своих руках и отдает приказ о создании республиканской армии для поддержки малочисленной группы джедаев в их борьбе с превосходящим противником.-Релиз:
Автор: DenisNN
Качество: BDRip (источник: / Blu-ray Disc CEE/ 1080p)
Формат: mkv
Видео: 1024x436 (2,35:1), 23.976 fps, x264@L4.1, 2pass, ~1502 kbps avg
Аудио: 1 48 kHz, AC3 Dolby Digital, 3/2 (L,C,R,l,r) + LFE ch, ~448.00 kbps avg rus
Аудио: 2 48 kHz, AC3 Dolby Digital, 3/2 (L,C,R,l,r) + LFE ch, ~448.00 kbps avg eng
-

MInfo


Формат : Matroska
Версия формата : Version 2
Размер файла : 2,39 Гбайт
Продолжительность : 2 ч. 22 м.
Общий поток : 2399 Кбит/сек
Дата кодирования : UTC 2011-09-28 12:37:43
Программа кодирования : mkvmerge v4.9.1 ('Ich will') сборка от Jul 11 2011 23:53:15
Библиотека кодирования : libebml v1.2.1 + libmatroska v1.1.1
Видео
Идентификатор : 1
Формат : AVC
Формат/Информация : Advanced Video Codec
Профиль формата : High@L4.1
Параметр CABAC формата : Да
Параметр ReFrames формата : 8 кадров
Идентификатор кодека : V_MPEG4/ISO/AVC
Продолжительность : 2 ч. 22 м.
Битрейт : 1502 Кбит/сек
Ширина : 1024 пикселя
Высота : 436 пикселей
Соотношение сторон : 2,35:1
Частота кадров : 23,976 кадра/сек
Цветовое пространство : YUV
Субдискретизация насыщенности : 4:2:0
Битовая глубина : 8 бит
Тип развёртки : Прогрессивная
Бит/(Пиксели*Кадры) : 0.140
Размер потока : 1,45 Гбайт (61%)
Заголовок : Rip by DenisNN
Библиотека кодирования : x264 core 116 r2074 2641b9e
Настройки программы : cabac=1 / ref=8 / deblock=1:3:3 / analyse=0x3:0x133 / me=umh / subme=10 / psy=1 / psy_rd=1.00:0.00 / mixed_ref=1 / me_range=32 / chroma_me=1 / trellis=2 / 8x8dct=1 / cqm=0 / deadzone=21,11 / fast_pskip=0 / chroma_qp_offset=3 / threads=3 / sliced_threads=0 / nr=0 / decimate=1 / interlaced=0 / bluray_compat=0 / constrained_intra=0 / bframes=7 / b_pyramid=2 / b_adapt=2 / b_bias=0 / direct=3 / weightb=1 / open_gop=0 / weightp=2 / keyint=250 / keyint_min=23 / scenecut=40 / intra_refresh=0 / rc=2pass / mbtree=0 / bitrate=1502 / ratetol=1.0 / qcomp=0.60 / qpmin=10 / qpmax=51 / qpstep=4 / cplxblur=20.0 / qblur=0.5 / ip_ratio=1.40 / pb_ratio=1.30 / aq=2:1.00
Язык : English
Аудио #1
Идентификатор : 2
Формат : AC-3
Формат/Информация : Audio Coding 3
Расширение режима : CM (complete main)
Идентификатор кодека : A_AC3
Продолжительность : 2 ч. 22 м.
Вид битрейта : Постоянный
Битрейт : 448 Кбит/сек
Каналы : 6 каналов
Расположение каналов : Front: L C R, Side: L R, LFE
Частота : 48,0 КГц
Битовая глубина : 16 бит
Метод сжатия : С потерями
Размер потока : 457 Мбайт (19%)
Заголовок : CEE Дубляж
Язык : Russian
Аудио #2
Идентификатор : 3
Формат : AC-3
Формат/Информация : Audio Coding 3
Расширение режима : CM (complete main)
Идентификатор кодека : A_AC3
Продолжительность : 2 ч. 22 м.
Вид битрейта : Постоянный
Битрейт : 448 Кбит/сек
Каналы : 6 каналов
Расположение каналов : Front: L C R, Side: L R, LFE
Частота : 48,0 КГц
Битовая глубина : 16 бит
Метод сжатия : С потерями
Размер потока : 457 Мбайт (19%)
Заголовок : Английский
Язык : English
Текст #1
Идентификатор : 4
Формат : UTF-8
Идентификатор кодека : S_TEXT/UTF8
Идентификатор кодека/Информация : UTF-8 Plain Text
Заголовок : Русские Forced
Язык : Russian
Текст #2
Идентификатор : 5
Формат : UTF-8
Идентификатор кодека : S_TEXT/UTF8
Идентификатор кодека/Информация : UTF-8 Plain Text
Заголовок : Русские Full
Язык : Russian
Текст #3
Идентификатор : 6
Формат : UTF-8
Идентификатор кодека : S_TEXT/UTF8
Идентификатор кодека/Информация : UTF-8 Plain Text
Заголовок : Английские Full
Язык : English
Меню
00:00:00.000 : :Chapter 01
00:00:23.440 : :Chapter 03
00:01:50.527 : :Chapter 05
00:04:22.095 : :Chapter 07
00:07:00.002 : :Chapter 09
00:10:28.961 : :Chapter 11
00:14:19.900 : :Chapter 13
00:21:35.293 : :Chapter 15
00:24:48.236 : :Chapter 17
00:29:45.867 : :Chapter 19
00:31:33.474 : :Chapter 21
00:33:48.526 : :Chapter 23
00:34:50.505 : :Chapter 25
00:36:05.121 : :Chapter 27
00:38:25.928 : :Chapter 29
00:39:25.362 : :Chapter 31
00:40:56.370 : :Chapter 33
00:42:12.780 : :Chapter 35
00:44:02.014 : :Chapter 37
00:45:50.414 : :Chapter 39
00:47:50.075 : :Chapter 41
00:50:21.017 : :Chapter 43
00:53:01.428 : :Chapter 45
00:56:44.818 : :Chapter 47
00:58:56.699 : :Chapter 49
01:00:46.059 : :Chapter 51
01:03:41.192 : :Chapter 53
01:06:24.355 : :Chapter 55
01:11:18.774 : :Chapter 57
01:14:01.353 : :Chapter 59
01:15:23.477 : :Chapter 61
01:17:48.872 : :Chapter 63
01:21:40.353 : :Chapter 65
01:23:46.896 : :Chapter 67
01:28:10.159 : :Chapter 69
01:30:52.905 : :Chapter 71
01:33:38.487 : :Chapter 73
01:35:27.847 : :Chapter 75
01:42:44.867 : :Chapter 77
01:45:14.016 : :Chapter 79
01:49:53.628 : :Chapter 81
01:56:22.475 : :Chapter 83
01:57:47.602 : :Chapter 85
02:00:29.180 : :Chapter 87
02:04:48.981 : :Chapter 89
02:07:41.945 : :Chapter 91
02:11:23.667 : :Chapter 93
02:12:54.883 : :Chapter 95
02:14:49.247 : :Chapter 97
02:15:54.938 : :Chapter 99
02:22:27.622 : :Chapter 100

-

Кадры из фильма

-Звездные войны: Эпизод 3 - Месть Ситхов / Star Wars: Episode III - Revenge of the Sith-
Год выпуска: 2005
Выпущено: США
Продолжительность: 02:20:05
Жанр: фантастика, приключения, боевик
Перевод: Профессиональный (полное дублирование)
+ Оригинальная звуковая дорожка
Cубтитры: русские (инопланетная речь), русские (полные), английские (srt)-Режиссер: Джордж Лукас / George Lucas
В ролях: Юэн МакГрегор, Натали Портман, Хейден Кристенсен, Иэн МакДайармид, Сэмюэл Л. Джексон, Джимми Смитс, Фрэнк Оз, Энтони Дэниелс, Кристофер Ли, Киша Касл-Хьюз
О фильме: Со времен, описанных во втором эпизоде, прошло 3 года. Энакин окончательно встает на темную сторону силы и превращается в Дарта Вейдера. Республика гибнет под ударами крепнущей Империи, Джедаи теряют контроль над галактикой, а Падме готовится к тому, чтобы стать матерью. Все эти события будут разворачиваться на фоне грандиозной битвы, знаменующей финал Клонических войн...-Релиз:
Автор: DenisNN
Качество: BDRip (источник: / Blu-ray Disc CEE/ 1080p)
Формат: mkv
Видео: 1024x436 (2,35:1), 23.976 fps, x264@L4.1, 2pass, ~1970 kbps avg
Аудио: 1 48 kHz, AC3 Dolby Digital, 3/2 (L,C,R,l,r) + LFE ch, ~448.00 kbps avg rus
Аудио: 2 48 kHz, AC3 Dolby Digital, 3/2 (L,C,R,l,r) + LFE ch, ~448.00 kbps avg eng
-

MInfo


Формат : Matroska
Версия формата : Version 2
Размер файла : 2,81 Гбайт
Продолжительность : 2 ч. 20 м.
Общий поток : 2867 Кбит/сек
Дата кодирования : UTC 2011-09-28 12:39:52
Программа кодирования : mkvmerge v4.9.1 ('Ich will') сборка от Jul 11 2011 23:53:15
Библиотека кодирования : libebml v1.2.1 + libmatroska v1.1.1
Видео
Идентификатор : 1
Формат : AVC
Формат/Информация : Advanced Video Codec
Профиль формата : High@L4.1
Параметр CABAC формата : Да
Параметр ReFrames формата : 8 кадров
Идентификатор кодека : V_MPEG4/ISO/AVC
Продолжительность : 2 ч. 20 м.
Битрейт : 1970 Кбит/сек
Ширина : 1024 пикселя
Высота : 436 пикселей
Соотношение сторон : 2,35:1
Частота кадров : 23,976 кадра/сек
Цветовое пространство : YUV
Субдискретизация насыщенности : 4:2:0
Битовая глубина : 8 бит
Тип развёртки : Прогрессивная
Бит/(Пиксели*Кадры) : 0.184
Размер потока : 1,87 Гбайт (67%)
Заголовок : Rip by DenisNN
Библиотека кодирования : x264 core 116 r2074 2641b9e
Настройки программы : cabac=1 / ref=8 / deblock=1:3:3 / analyse=0x3:0x133 / me=umh / subme=10 / psy=1 / psy_rd=1.00:0.00 / mixed_ref=1 / me_range=32 / chroma_me=1 / trellis=2 / 8x8dct=1 / cqm=0 / deadzone=21,11 / fast_pskip=0 / chroma_qp_offset=3 / threads=3 / sliced_threads=0 / nr=0 / decimate=1 / interlaced=0 / bluray_compat=0 / constrained_intra=0 / bframes=7 / b_pyramid=2 / b_adapt=2 / b_bias=0 / direct=3 / weightb=1 / open_gop=0 / weightp=2 / keyint=250 / keyint_min=23 / scenecut=40 / intra_refresh=0 / rc=2pass / mbtree=0 / bitrate=1970 / ratetol=1.0 / qcomp=0.60 / qpmin=10 / qpmax=51 / qpstep=4 / cplxblur=20.0 / qblur=0.5 / ip_ratio=1.40 / pb_ratio=1.30 / aq=2:1.00
Язык : English
Аудио #1
Идентификатор : 2
Формат : AC-3
Формат/Информация : Audio Coding 3
Расширение режима : CM (complete main)
Идентификатор кодека : A_AC3
Продолжительность : 2 ч. 20 м.
Вид битрейта : Постоянный
Битрейт : 448 Кбит/сек
Каналы : 6 каналов
Расположение каналов : Front: L C R, Side: L R, LFE
Частота : 48,0 КГц
Битовая глубина : 16 бит
Метод сжатия : С потерями
Размер потока : 449 Мбайт (16%)
Заголовок : СЕЕ дубляж
Язык : Russian
Аудио #2
Идентификатор : 3
Формат : AC-3
Формат/Информация : Audio Coding 3
Расширение режима : CM (complete main)
Идентификатор кодека : A_AC3
Продолжительность : 2 ч. 20 м.
Вид битрейта : Постоянный
Битрейт : 448 Кбит/сек
Каналы : 6 каналов
Расположение каналов : Front: L C R, Side: L R, LFE
Частота : 48,0 КГц
Битовая глубина : 16 бит
Метод сжатия : С потерями
Размер потока : 449 Мбайт (16%)
Заголовок : Английский
Язык : English
Текст #1
Идентификатор : 4
Формат : UTF-8
Идентификатор кодека : S_TEXT/UTF8
Идентификатор кодека/Информация : UTF-8 Plain Text
Заголовок : Русские
Язык : Russian
Текст #2
Идентификатор : 5
Формат : UTF-8
Идентификатор кодека : S_TEXT/UTF8
Идентификатор кодека/Информация : UTF-8 Plain Text
Заголовок : Английские
Язык : English
Меню
00:00:00.000 : :Chapter 01
00:00:23.523 : :Chapter 03
00:01:50.068 : :Chapter 05
00:08:28.132 : :Chapter 07
00:11:23.349 : :Chapter 09
00:18:33.737 : :Chapter 11
00:23:40.460 : :Chapter 13
00:27:37.697 : :Chapter 15
00:29:12.959 : :Chapter 17
00:33:18.913 : :Chapter 19
00:35:45.434 : :Chapter 21
00:36:47.997 : :Chapter 23
00:38:21.465 : :Chapter 25
00:40:17.456 : :Chapter 27
00:41:18.601 : :Chapter 29
00:42:41.058 : :Chapter 31
00:48:01.587 : :Chapter 33
00:50:20.517 : :Chapter 35
00:52:24.933 : :Chapter 37
00:53:58.026 : :Chapter 39
00:56:26.466 : :Chapter 41
01:00:56.277 : :Chapter 43
01:01:56.546 : :Chapter 45
01:05:26.047 : :Chapter 47
01:07:40.598 : :Chapter 49
01:09:06.976 : :Chapter 51
01:10:52.998 : :Chapter 53
01:15:19.223 : :Chapter 55
01:19:15.250 : :Chapter 57
01:20:37.457 : :Chapter 59
01:24:20.597 : :Chapter 61
01:27:56.521 : :Chapter 63
01:29:57.391 : :Chapter 65
01:33:40.406 : :Chapter 67
01:36:39.460 : :Chapter 69
01:38:35.534 : :Chapter 71
01:41:24.369 : :Chapter 73
01:42:57.004 : :Chapter 75
01:48:18.783 : :Chapter 77
01:50:59.444 : :Chapter 79
01:52:44.007 : :Chapter 81
01:54:22.855 : :Chapter 83
01:56:54.924 : :Chapter 85
02:02:20.875 : :Chapter 87
02:03:32.863 : :Chapter 89
02:05:19.637 : :Chapter 91
02:07:37.107 : :Chapter 93
02:08:57.062 : :Chapter 95
02:12:04.958 : :Chapter 97
02:13:47.352 : :Chapter 99
02:20:05.605 : :Chapter 100

-

Кадры из фильма

-Звездные войны: Эпизод 4 - Новая надежда / Star Wars: Episode IV - A New Hope-
Год выпуска: 1977
Выпущено: США
Продолжительность: 02:04:44
Жанр: фантастика, приключения, боевик
Перевод: Профессиональный (полное дублирование)
+ Оригинальная звуковая дорожка
Cубтитры: русские (инопланетная речь), русские (полные), английские (srt)-Режиссер: Джордж Лукас / George Lucas
В ролях: Марк Хэмилл, Харрисон Форд, Кэрри Фишер, Питер Кашинг, Алек Гиннесс, Энтони Дэниелс, Кенни Бейкер, Питер Мейхью, Дэвид Праус, Джеймс Эрл Джонс...
О фильме: Татуин. Планета-пустыня. Уже постаревший рыцарь Джедай Оби Ван Кеноби спасает молодого Люка Скайуокера, когда тот пытается отыскать пропавшего дроида. С этого момента Люк осознает свое истинное назначение: он один из рыцарей Джедай. В то время как гражданская война охватила галактику, а войска повстанцев ведут бои против сил злого Императора, к Люку и Оби Вану присоединяется отчаянный пилот-наемник Хан Соло, и в сопровождении двух дроидов, R2D2 и C-3PO, этот необычный отряд отправляется на поиски предводителя повстанцев - принцессы Леи. Героям предстоит отчаянная схватка с устрашающим Дартом Вейдером - правой рукой Императора и его секретным оружием - «Звездой Смерти».-Релиз:
Автор: DenisNN
Качество: BDRip (источник: / Blu-ray Disc CEE/ 1080p)
Формат: mkv
Видео: 1024x436 (2,35:1), 23.976 fps, x264@L4.1, 2pass, ~2086 kbps avg
Аудио: 1 48 kHz, AC3 Dolby Digital, 3/2 (L,C,R,l,r) + LFE ch, ~448.00 kbps avg rus
Аудио: 2 48 kHz, AC3 Dolby Digital, 3/2 (L,C,R,l,r) + LFE ch, ~448.00 kbps avg eng
-

MInfo


Формат : Matroska
Версия формата : Version 2
Размер файла : 2,51 Гбайт
Продолжительность : 2 ч. 7 м.
Общий поток : 2816 Кбит/сек
Дата кодирования : UTC 2011-09-28 12:44:45
Программа кодирования : mkvmerge v4.9.1 ('Ich will') сборка от Jul 11 2011 23:53:15
Библиотека кодирования : libebml v1.2.1 + libmatroska v1.1.1
Видео
Идентификатор : 1
Формат : AVC
Формат/Информация : Advanced Video Codec
Профиль формата : High@L4.1
Параметр CABAC формата : Да
Параметр ReFrames формата : 8 кадров
Идентификатор кодека : V_MPEG4/ISO/AVC
Продолжительность : 2 ч. 7 м.
Битрейт : 1918 Кбит/сек
Ширина : 1024 пикселя
Высота : 436 пикселей
Соотношение сторон : 2,35:1
Частота кадров : 23,976 кадра/сек
Цветовое пространство : YUV
Субдискретизация насыщенности : 4:2:0
Битовая глубина : 8 бит
Тип развёртки : Прогрессивная
Бит/(Пиксели*Кадры) : 0.179
Размер потока : 1,66 Гбайт (66%)
Заголовок : Rip by DenisNN
Библиотека кодирования : x264 core 116 r2074 2641b9e
Настройки программы : cabac=1 / ref=8 / deblock=1:3:3 / analyse=0x3:0x133 / me=umh / subme=10 / psy=1 / psy_rd=1.00:0.00 / mixed_ref=1 / me_range=32 / chroma_me=1 / trellis=2 / 8x8dct=1 / cqm=0 / deadzone=21,11 / fast_pskip=0 / chroma_qp_offset=3 / threads=3 / sliced_threads=0 / nr=0 / decimate=1 / interlaced=0 / bluray_compat=0 / constrained_intra=0 / bframes=7 / b_pyramid=2 / b_adapt=2 / b_bias=0 / direct=3 / weightb=1 / open_gop=0 / weightp=2 / keyint=250 / keyint_min=23 / scenecut=40 / intra_refresh=0 / rc=2pass / mbtree=0 / bitrate=1918 / ratetol=1.0 / qcomp=0.60 / qpmin=10 / qpmax=51 / qpstep=4 / cplxblur=20.0 / qblur=0.5 / ip_ratio=1.40 / pb_ratio=1.30 / aq=2:1.00
Язык : English
Аудио #1
Идентификатор : 2
Формат : AC-3
Формат/Информация : Audio Coding 3
Расширение режима : CM (complete main)
Идентификатор кодека : A_AC3
Продолжительность : 2 ч. 7 м.
Вид битрейта : Постоянный
Битрейт : 448 Кбит/сек
Каналы : 6 каналов
Расположение каналов : Front: L C R, Side: L R, LFE
Частота : 48,0 КГц
Битовая глубина : 16 бит
Метод сжатия : С потерями
Размер потока : 408 Мбайт (16%)
Заголовок : CEE Дубляж
Язык : Russian
Аудио #2
Идентификатор : 3
Формат : AC-3
Формат/Информация : Audio Coding 3
Расширение режима : CM (complete main)
Идентификатор кодека : A_AC3
Продолжительность : 2 ч. 7 м.
Вид битрейта : Постоянный
Битрейт : 448 Кбит/сек
Каналы : 6 каналов
Расположение каналов : Front: L C R, Side: L R, LFE
Частота : 48,0 КГц
Битовая глубина : 16 бит
Метод сжатия : С потерями
Размер потока : 408 Мбайт (16%)
Заголовок : Английский
Язык : English
Текст #1
Идентификатор : 4
Формат : UTF-8
Идентификатор кодека : S_TEXT/UTF8
Идентификатор кодека/Информация : UTF-8 Plain Text
Заголовок : Русские
Язык : Russian
Текст #2
Идентификатор : 5
Формат : UTF-8
Идентификатор кодека : S_TEXT/UTF8
Идентификатор кодека/Информация : UTF-8 Plain Text
Заголовок : Английские
Язык : English
Меню
00:00:00.000 : :Chapter 01
00:00:21.104 : :Chapter 03
00:01:54.864 : :Chapter 05
00:04:15.838 : :Chapter 07
00:08:19.248 : :Chapter 09
00:10:15.948 : :Chapter 11
00:12:57.735 : :Chapter 13
00:15:13.537 : :Chapter 15
00:16:29.697 : :Chapter 17
00:18:19.973 : :Chapter 19
00:19:45.392 : :Chapter 21
00:21:22.698 : :Chapter 23
00:23:57.727 : :Chapter 25
00:25:49.422 : :Chapter 27
00:29:29.350 : :Chapter 29
00:31:29.220 : :Chapter 31
00:33:37.682 : :Chapter 33
00:35:55.152 : :Chapter 35
00:36:51.250 : :Chapter 37
00:38:33.561 : :Chapter 39
00:40:36.725 : :Chapter 41
00:44:20.074 : :Chapter 43
00:46:08.390 : :Chapter 45
00:50:13.385 : :Chapter 47
00:52:16.633 : :Chapter 49
00:54:20.256 : :Chapter 51
00:57:40.290 : :Chapter 53
01:00:57.945 : :Chapter 55
01:03:42.777 : :Chapter 57
01:05:46.108 : :Chapter 59
01:08:12.171 : :Chapter 61
01:13:24.233 : :Chapter 63
01:16:39.886 : :Chapter 65
01:18:24.116 : :Chapter 67
01:19:45.864 : :Chapter 69
01:22:55.929 : :Chapter 71
01:25:38.550 : :Chapter 73
01:27:51.265 : :Chapter 75
01:30:28.673 : :Chapter 77
01:34:39.799 : :Chapter 79
01:38:28.902 : :Chapter 81
01:40:26.145 : :Chapter 83
01:41:46.099 : :Chapter 85
01:43:51.433 : :Chapter 87
01:47:02.541 : :Chapter 89
01:49:21.471 : :Chapter 91
01:53:41.689 : :Chapter 93
01:56:14.842 : :Chapter 95
01:59:46.596 : :Chapter 97
02:01:58.227 : :Chapter 99
02:07:21.300 : :Chapter 100

-

Кадры из фильма

-Звездные войны: Эпизод 5 - Империя наносит ответный удар / Star Wars: Episode V - The Empire Strikes Back-
Год выпуска: 1980
Выпущено: США
Продолжительность: 02:07:21
Жанр: фантастика, приключения, боевик
Перевод: Профессиональный (полное дублирование)
+ Оригинальная звуковая дорожка
Cубтитры: русские (инопланетная речь), русские (полные), английские (srt)-Режиссер: Ирвин Кершнер / Irvin Kershner
В ролях: Марк Хэмилл, Харрисон Форд, Кэрри Фишер, Билли Ди Уильямс, Энтони Дэниелс, Дэвид Праус, Питер Мейхью, Кенни Бейкер, Фрэнк Оз, Алек Гиннесс
О фильме: Борьба за Галактику обостряется в пятом эпизоде космической саги. Войска Императора начинают массированную атаку на повстанцев и их союзников. Хан Соло и принцесса Лейя укрываются в Заоблачном Городе, в котором их и захватывает Дарт Вейдер, в то время как Люк Скайуокер находится на таинственной планете джунглей Дагобар. Там Мастер - джедай Йода обучает молодого рыцаря навыкам обретения Силы. Люк даже не предполагает, как скоро ему придется воспользоваться знаниями старого Мастера: впереди битва с превосходящими силами Императора и смертельный поединок с Дартом Вейдером.-Релиз:
Автор: DenisNN
Качество: BDRip (источник: / Blu-ray Disc CEE/ 1080p)
Формат: mkv
Видео: 1024x436 (2,35:1), 23.976 fps, x264@L4.1, 2pass, ~1918 kbps avg
Аудио: 1 48 kHz, AC3 Dolby Digital, 3/2 (L,C,R,l,r) + LFE ch, ~448.00 kbps avg rus
Аудио: 2 48 kHz, AC3 Dolby Digital, 3/2 (L,C,R,l,r) + LFE ch, ~448.00 kbps avg eng
-

MInfo


Формат : Matroska
Версия формата : Version 2
Размер файла : 2,43 Гбайт
Продолжительность : 2 ч. 16 м.
Общий поток : 2550 Кбит/сек
Дата кодирования : UTC 2011-09-28 12:35:11
Программа кодирования : mkvmerge v4.9.1 ('Ich will') сборка от Jul 11 2011 23:53:15
Библиотека кодирования : libebml v1.2.1 + libmatroska v1.1.1
Видео
Идентификатор : 1
Формат : AVC
Формат/Информация : Advanced Video Codec
Профиль формата : High@L4.1
Параметр CABAC формата : Да
Параметр ReFrames формата : 8 кадров
Идентификатор кодека : V_MPEG4/ISO/AVC
Продолжительность : 2 ч. 16 м.
Битрейт : 1652 Кбит/сек
Ширина : 1024 пикселя
Высота : 436 пикселей
Соотношение сторон : 2,35:1
Частота кадров : 23,976 кадра/сек
Цветовое пространство : YUV
Субдискретизация насыщенности : 4:2:0
Битовая глубина : 8 бит
Тип развёртки : Прогрессивная
Бит/(Пиксели*Кадры) : 0.154
Размер потока : 1,52 Гбайт (63%)
Заголовок : Rip by DenisNN
Библиотека кодирования : x264 core 116 r2074 2641b9e
Настройки программы : cabac=1 / ref=8 / deblock=1:3:3 / analyse=0x3:0x133 / me=umh / subme=10 / psy=1 / psy_rd=1.00:0.00 / mixed_ref=1 / me_range=32 / chroma_me=1 / trellis=2 / 8x8dct=1 / cqm=0 / deadzone=21,11 / fast_pskip=0 / chroma_qp_offset=3 / threads=3 / sliced_threads=0 / nr=0 / decimate=1 / interlaced=0 / bluray_compat=0 / constrained_intra=0 / bframes=7 / b_pyramid=2 / b_adapt=2 / b_bias=0 / direct=3 / weightb=1 / open_gop=0 / weightp=2 / keyint=250 / keyint_min=23 / scenecut=40 / intra_refresh=0 / rc=2pass / mbtree=0 / bitrate=1652 / ratetol=1.0 / qcomp=0.60 / qpmin=10 / qpmax=51 / qpstep=4 / cplxblur=20.0 / qblur=0.5 / ip_ratio=1.40 / pb_ratio=1.30 / aq=2:1.00
Язык : English
Аудио #1
Идентификатор : 2
Формат : AC-3
Формат/Информация : Audio Coding 3
Расширение режима : CM (complete main)
Идентификатор кодека : A_AC3
Продолжительность : 2 ч. 16 м.
Вид битрейта : Постоянный
Битрейт : 448 Кбит/сек
Каналы : 6 каналов
Расположение каналов : Front: L C R, Side: L R, LFE
Частота : 48,0 КГц
Битовая глубина : 16 бит
Метод сжатия : С потерями
Размер потока : 436 Мбайт (18%)
Заголовок : CEE Дубляж
Язык : Russian
Аудио #2
Идентификатор : 3
Формат : AC-3
Формат/Информация : Audio Coding 3
Расширение режима : CM (complete main)
Идентификатор кодека : A_AC3
Продолжительность : 2 ч. 16 м.
Вид битрейта : Постоянный
Битрейт : 448 Кбит/сек
Каналы : 6 каналов
Расположение каналов : Front: L C R, Side: L R, LFE
Частота : 48,0 КГц
Битовая глубина : 16 бит
Метод сжатия : С потерями
Размер потока : 436 Мбайт (18%)
Заголовок : Английский
Язык : English
Текст #1
Идентификатор : 4
Формат : UTF-8
Идентификатор кодека : S_TEXT/UTF8
Идентификатор кодека/Информация : UTF-8 Plain Text
Заголовок : Русские Forced
Язык : Russian
Текст #2
Идентификатор : 5
Формат : UTF-8
Идентификатор кодека : S_TEXT/UTF8
Идентификатор кодека/Информация : UTF-8 Plain Text
Заголовок : Русские Full
Язык : Russian
Текст #3
Идентификатор : 6
Формат : UTF-8
Идентификатор кодека : S_TEXT/UTF8
Идентификатор кодека/Информация : UTF-8 Plain Text
Заголовок : Английские Full
Язык : English
Меню
00:00:00.000 : :Chapter 01
00:00:21.104 : :Chapter 03
00:01:52.737 : :Chapter 05
00:07:55.349 : :Chapter 07
00:09:55.970 : :Chapter 09
00:11:18.761 : :Chapter 11
00:13:24.178 : :Chapter 13
00:14:49.805 : :Chapter 15
00:17:14.241 : :Chapter 17
00:20:40.948 : :Chapter 19
00:22:25.302 : :Chapter 21
00:25:12.886 : :Chapter 23
00:29:32.812 : :Chapter 25
00:31:41.482 : :Chapter 27
00:35:51.732 : :Chapter 29
00:40:48.571 : :Chapter 31
00:44:16.320 : :Chapter 33
00:52:04.579 : :Chapter 35
00:55:03.842 : :Chapter 37
00:58:27.921 : :Chapter 39
01:02:27.702 : :Chapter 41
01:05:33.012 : :Chapter 43
01:10:06.911 : :Chapter 45
01:11:17.940 : :Chapter 47
01:16:20.951 : :Chapter 49
01:18:08.100 : :Chapter 51
01:20:26.363 : :Chapter 53
01:24:18.178 : :Chapter 55
01:26:44.782 : :Chapter 57
01:29:54.722 : :Chapter 59
01:31:02.415 : :Chapter 61
01:33:08.541 : :Chapter 63
01:37:21.418 : :Chapter 65
01:39:06.315 : :Chapter 67
01:42:33.730 : :Chapter 69
01:44:41.566 : :Chapter 71
01:46:19.247 : :Chapter 73
01:48:07.731 : :Chapter 75
01:50:24.951 : :Chapter 77
01:56:47.667 : :Chapter 79
01:59:13.062 : :Chapter 81
02:00:31.390 : :Chapter 83
02:01:21.315 : :Chapter 85
02:02:23.377 : :Chapter 87
02:03:56.971 : :Chapter 89
02:05:15.132 : :Chapter 91
02:06:25.995 : :Chapter 93
02:07:23.177 : :Chapter 95
02:08:28.992 : :Chapter 97
02:09:53.535 : :Chapter 99
02:16:10.662 : :Chapter 100

-

Кадры из фильма

-Звездные войны: Эпизод 6 - Возвращение Джедая / Star Wars: Episode VI - Return of the Jedi-
Год выпуска: 1983
Выпущено: США
Продолжительность: 02:14:47
Жанр: фантастика, приключения, боевик
Перевод: Профессиональный (полное дублирование)
+ Оригинальная звуковая дорожка
Cубтитры: русские (инопланетная речь), русские (полные), английские (srt)-Режиссер: Ричард Маркуэнд / Richard Marquand
В ролях: Марк Хэмилл, Харрисон Форд, Кэрри Фишер, Билли Ди Уильямс, Энтони Дэниелс, Питер Мейхью, Себастьян Шоу, Иэн МакДайармид, Фрэнк Оз, Джеймс Эрл Джонс
О фильме: В заключительном шестом эпизоде «Звездных войн» Дарт Вейдер создает вторую «Звезду Смерти». Он объединяет все силы зла, чтобы с помощью этого смертоносного оружия нанести последний сокрушительный удар по повстанцам и их союзникам. Люк Скайуокер вместе с принцессой Лейей и верными дроидами R2D2 и C-3PO отправляется спасать своего друга Хана Соло, который попал в плен к отвратительному Джаббе Хатту - могущественному повелителю преступников. Повстанцы высаживаются на планету Эндор, чтобы оттуда вместе с Люком и его отрядом предпринять последнюю атаку на Имперский флот, атаку, от которой зависит судьба Галактики. В этом эпизоде Люк Скайуокер и Дарт Вейдер встречаются в последний раз... ибо из поединка между отцом и сыном живым выйдет только один...-Релиз:
Автор: DenisNN
Качество: BDRip (источник: / Blu-ray Disc CEE/ 1080p)
Формат: mkv
Видео: 1024x436 (2,35:1), 23.976 fps, x264@L4.1, 2pass, ~2452 kbps avg
Аудио: 1 48 kHz, AC3 Dolby Digital, 3/2 (L,C,R,l,r) + LFE ch, ~448.00 kbps avg rus
Аудио: 2 48 kHz, AC3 Dolby Digital, 3/2 (L,C,R,l,r) + LFE ch, ~448.00 kbps avg eng
-

MInfo

Формат : Matroska
Версия формата : Version 2
Размер файла : 3,15 Гбайт
Продолжительность : 2 ч. 14 м.
Общий поток : 3350 Кбит/сек
Дата кодирования : UTC 2011-09-28 12:46:52
Программа кодирования : mkvmerge v4.9.1 ('Ich will') сборка от Jul 11 2011 23:53:15
Библиотека кодирования : libebml v1.2.1 + libmatroska v1.1.1
Видео
Идентификатор : 1
Формат : AVC
Формат/Информация : Advanced Video Codec
Профиль формата : High@L4.1
Параметр CABAC формата : Да
Параметр ReFrames формата : 8 кадров
Идентификатор кодека : V_MPEG4/ISO/AVC
Продолжительность : 2 ч. 14 м.
Битрейт : 2452 Кбит/сек
Ширина : 1024 пикселя
Высота : 436 пикселей
Соотношение сторон : 2,35:1
Частота кадров : 23,976 кадра/сек
Цветовое пространство : YUV
Субдискретизация насыщенности : 4:2:0
Битовая глубина : 8 бит
Тип развёртки : Прогрессивная
Бит/(Пиксели*Кадры) : 0.229
Размер потока : 2,25 Гбайт (71%)
Заголовок : Rip by DenisNN
Библиотека кодирования : x264 core 116 r2074 2641b9e
Настройки программы : cabac=1 / ref=8 / deblock=1:3:3 / analyse=0x3:0x133 / me=umh / subme=10 / psy=1 / psy_rd=1.00:0.00 / mixed_ref=1 / me_range=32 / chroma_me=1 / trellis=2 / 8x8dct=1 / cqm=0 / deadzone=21,11 / fast_pskip=0 / chroma_qp_offset=3 / threads=3 / sliced_threads=0 / nr=0 / decimate=1 / interlaced=0 / bluray_compat=0 / constrained_intra=0 / bframes=7 / b_pyramid=2 / b_adapt=2 / b_bias=0 / direct=3 / weightb=1 / open_gop=0 / weightp=2 / keyint=250 / keyint_min=23 / scenecut=40 / intra_refresh=0 / rc=2pass / mbtree=0 / bitrate=2452 / ratetol=1.0 / qcomp=0.60 / qpmin=10 / qpmax=51 / qpstep=4 / cplxblur=20.0 / qblur=0.5 / ip_ratio=1.40 / pb_ratio=1.30 / aq=2:1.00
Язык : English
Аудио #1
Идентификатор : 2
Формат : AC-3
Формат/Информация : Audio Coding 3
Расширение режима : CM (complete main)
Идентификатор кодека : A_AC3
Продолжительность : 2 ч. 14 м.
Вид битрейта : Постоянный
Битрейт : 448 Кбит/сек
Каналы : 6 каналов
Расположение каналов : Front: L C R, Side: L R, LFE
Частота : 48,0 КГц
Битовая глубина : 16 бит
Метод сжатия : С потерями
Размер потока : 432 Мбайт (13%)
Заголовок : Dub
Язык : Russian
Аудио #2
Идентификатор : 3
Формат : AC-3
Формат/Информация : Audio Coding 3
Расширение режима : CM (complete main)
Идентификатор кодека : A_AC3
Продолжительность : 2 ч. 14 м.
Вид битрейта : Постоянный
Битрейт : 448 Кбит/сек
Каналы : 6 каналов
Расположение каналов : Front: L C R, Side: L R, LFE
Частота : 48,0 КГц
Битовая глубина : 16 бит
Метод сжатия : С потерями
Размер потока : 432 Мбайт (13%)
Заголовок : Английский
Язык : English
Текст #1
Идентификатор : 4
Формат : UTF-8
Идентификатор кодека : S_TEXT/UTF8
Идентификатор кодека/Информация : UTF-8 Plain Text
Заголовок : Русские Forced
Язык : Russian
Текст #2
Идентификатор : 5
Формат : UTF-8
Идентификатор кодека : S_TEXT/UTF8
Идентификатор кодека/Информация : UTF-8 Plain Text
Заголовок : Русские Full
Язык : Russian
Текст #3
Идентификатор : 6
Формат : UTF-8
Идентификатор кодека : S_TEXT/UTF8
Идентификатор кодека/Информация : UTF-8 Plain Text
Заголовок : Английские Full
Язык : English
Меню
00:00:00.000 : :Chapter 01
00:00:21.187 : :Chapter 03
00:01:55.115 : :Chapter 05
00:04:58.464 : :Chapter 07
00:08:10.907 : :Chapter 09
00:12:21.907 : :Chapter 11
00:14:22.027 : :Chapter 13
00:17:36.013 : :Chapter 15
00:22:10.037 : :Chapter 17
00:25:08.340 : :Chapter 19
00:29:37.358 : :Chapter 21
00:31:29.012 : :Chapter 23
00:37:44.470 : :Chapter 25
00:39:32.244 : :Chapter 27
00:45:17.423 : :Chapter 29
00:48:23.400 : :Chapter 31
00:51:36.009 : :Chapter 33
00:53:32.667 : :Chapter 35
00:54:25.095 : :Chapter 37
00:56:55.245 : :Chapter 39
00:58:43.811 : :Chapter 41
01:02:41.716 : :Chapter 43
01:06:19.266 : :Chapter 45
01:07:47.480 : :Chapter 47
01:12:01.108 : :Chapter 49
01:15:52.673 : :Chapter 51
01:18:14.815 : :Chapter 53
01:22:30.403 : :Chapter 55
01:26:06.870 : :Chapter 57
01:26:52.081 : :Chapter 59
01:27:50.890 : :Chapter 61
01:30:04.524 : :Chapter 63
01:33:19.135 : :Chapter 65
01:36:41.420 : :Chapter 67
01:40:25.185 : :Chapter 69
01:42:23.178 : :Chapter 71
01:44:27.803 : :Chapter 73
01:45:26.945 : :Chapter 75
01:48:42.432 : :Chapter 77
01:50:40.634 : :Chapter 79
01:51:37.107 : :Chapter 81
01:54:37.120 : :Chapter 83
01:55:07.859 : :Chapter 85
01:55:57.492 : :Chapter 87
01:57:40.178 : :Chapter 89
01:59:34.167 : :Chapter 91
02:01:58.853 : :Chapter 93
02:04:50.566 : :Chapter 95
02:05:27.436 : :Chapter 97
02:07:56.043 : :Chapter 99
02:14:47.120 : :Chapter 100

-

Кадры из фильма

-Обложки: exclusive by HQCLUB. использование - с разрешения.-

_________________
Показать сообщения:    

Текущее время: Сегодня 12:48

Часовой пояс: GMT



Вы не можете начинать темы
Вы не можете отвечать на сообщения
Вы не можете редактировать свои сообщения
Вы не можете удалять свои сообщения
Вы не можете голосовать в опросах
Вы не можете прикреплять файлы к сообщениям
Вы не можете скачивать файлы