Важное объявление!
У Нас Все раздачи мультитрекерные, при нуле пиров в релизах, можете смело вставать на закачку!
 
Автор Сообщение

HUNTER

Стаж:
4 года 8 месяцев
Сообщений:
61985

Репутация: 101

[+] [-]
Вне форума [Профиль] [ЛС]

Звездные Войны: Войны Клонов (ТОМ №2) / Star Wars: Clone Wars (Volume №2)
Страна: США, Корея Южная
Жанр: Мультфильм, фантастика, фэнтези, боевик, приключе
Продолжительность: 01:03:34
Год выпуска: 2003-2004
Перевод: Любительский (многоголосый закадровый)
Русские субтитры: есть
Режиссёр: Генндий Тартаковский / Genndy Tartakovsky
Роли озвучивали: Андре Соглиуззо, Мат Лукас, Джеймс Арнольд Тейлор, Грэй ДеЛисл, Кори Бертон, Том Кэйн, Ник Джеймисон, Даран Норрис, Ричард МакГонагл, Энтони Дэниелс и другие.
Роли озвучивали «Iron Sound»: Шлыков Игорь, Валерий Нечай, Екатерина Дмитрова, Дмитрий Кущак, Вячеслав Осипов, Дмитрий Сухоруков, Алексей Щегорский, Евгений Кокурин, Илья Гусаков, Алексей Иванов и ТеТ Rec.
Описание: Между Вторым и Третьим эпизодами "Звездных войн" прошло три года. Именно тогда случилась та масса событий, которая превратила умирающую Республику в зловещую Империю.
В 4-ом эпизоде "Звездных войн" мы впервые услышали о Войнах клонов — прославленный генерал Оби-Ван Кеноби упомянул о них в разговоре с Люком Скайуокером. Но о том, что это были за войны, и чем Кеноби в них отличился, мы узнали только четверть века спустя — с выходом на экраны Второго эпизода. Первое сражение битва на Джеонозисе, первые клоны в подозрительно белых доспехах, первые погибшие джедаи. Войны клонов сотрясали далекую галактику три года от “Атаки клонов” и до “Мести ситхов” и те же три года, но уже на планете Земля, десятки писателей, художников, мультипликаторов писали историю о противостоянии Республики и Конфедерации Независимых Систем.
Войны клонов без преувеличения можно назвать поворотным событием в истории далекой-далекой галактики. Это время предательства и благородства, любви и ненависти, побед и поражений... Это война, которую выиграла Республика, — но ценой превращения в Империю. Наконец, это рассказ о том, что происходило между Вторым и Третьим эпизодами.
Цикл “Войны клонов” с уверенностью можно назвать одним из самых удачных проектов в рамках Расширенной вселенной “Звездных войн”. В первую очередь удались блестящие, насыщенные глубоким психологизмом и трагизмом романы, и очень красивые и интересные комиксы. В них мы почти не видим крупных битв. А если они и есть, то в основном как фон для эмоционального развития персонажей. Войны клонов получились куда в большей степени историей о героях, чем о самой войне.
Доп. материалы:
1) Связывая точки
2) Видео игры
3) Галереи кадров
4) Ролик третьего эпизода
5) Месть кирпичика
Доп. информация: Эта первая многоголосая озвучка, прошу не путать с Tycoon. У Тайкун студио конкретно два тома этого мультфильма озвучено в один голос. На трекере везде указанно по ошибке якобы MVO.
Семпл: http://multi-up.com/982757
Качество: DVD9 (Custom)
Исходник: http://rutracker.org/forum/viewtopic.php?t=231847
Изменения, внесенные в исходный релиз: Одноголосая дорожка от Tycoon-Studio, заменена на многоголосую (любительскую) от «Iron Sound».
Формат: DVD-video
Видео: MPEG-2, NTSC, 16:9, 720x480, 6 660 Kbps
Аудио: AC-3, 48.0 KHz, 448 Kbps, 5.1 channels [Russian MVO] - Студия «Iron Sound»
Аудио 2: AC-3, 48.0 KHz, 448 Kbps, 5.1 channels [English]
Аудио 3: AC-3, 48.0 KHz, 192 Kbps, 2 channels [English]
Аудио 4: AC-3, 48.0 KHz, 192 Kbps, 2 channels [Аудиокоментарии]
Субтитры: Русские и Английские
Используемый софт:
PgcDemux v1.2.0.5BeSweetSony Vegas 10Dolby Digital AC-3 Studio v1.0DVDRemake Pro 3.6.3
DVDInfo
C:\Users\User\Desktop\Star Wars - Clone Wars II [«Iron Sound»]\VTS_01_2.VOB General Complete name : C:\Users\User\Desktop\Star Wars - Clone Wars II [«Iron Sound»]\VTS_01_2.VOB Format : MPEG-PS File size : 1 024 MiB Duration : 17mn 40s Overall bit rate mode : Variable Overall bit rate : 8 101 Kbps Video #224 ID : 224 (0xE0) Format : MPEG Video Format version : Version 2 Format profile : Main@Main Format settings, BVOP : Yes Format settings, Matrix : Custom Format settings, GOP : Variable Duration : 17mn 39s Bit rate mode : Variable Bit rate : 6 660 Kbps Maximum bit rate : 9 800 Kbps Width : 720 pixels Height : 480 pixels Display aspect ratio : 16:9 Frame rate : 23.976 fps Standard : NTSC Color space : YUV Chroma subsampling : 4:2:0 Bit depth : 8 bits Scan type : Progressive Scan order : 2:3 Pulldown Compression mode : Lossy Bits/(Pixel*Frame) : 0.804 Time code of first frame : 00:14:55:18 Time code source : Group of pictures header Stream size : 842 MiB (82%) Audio #189-128 ID : 189 (0xBD)-128 (0x80) Format : AC-3 Format/Info : Audio Coding 3 Mode extension : CM (complete main) Format settings, Endianness : Big Muxing mode : DVD-Video Duration : 17mn 40s Bit rate mode : Constant Bit rate : 448 Kbps Channel count : 6 channels Channel positions : Front: L C R, Side: L R, LFE Sampling rate : 48.0 KHz Bit depth : 16 bits Compression mode : Lossy Delay relative to video : -574ms Stream size : 56.6 MiB (6%) Audio #189-129 ID : 189 (0xBD)-129 (0x81) Format : AC-3 Format/Info : Audio Coding 3 Mode extension : CM (complete main) Format settings, Endianness : Big Muxing mode : DVD-Video Duration : 17mn 40s Bit rate mode : Constant Bit rate : 448 Kbps Channel count : 6 channels Channel positions : Front: L C R, Side: L R, LFE Sampling rate : 48.0 KHz Bit depth : 16 bits Compression mode : Lossy Delay relative to video : -574ms Stream size : 56.6 MiB (6%) Audio #189-130 ID : 189 (0xBD)-130 (0x82) Format : AC-3 Format/Info : Audio Coding 3 Format profile : Dolby Digital Mode extension : CM (complete main) Format settings, Endianness : Big Muxing mode : DVD-Video Duration : 17mn 40s Bit rate mode : Constant Bit rate : 192 Kbps Channel count : 2 channels Channel positions : Front: L R Sampling rate : 48.0 KHz Bit depth : 16 bits Compression mode : Lossy Delay relative to video : -542ms Stream size : 24.3 MiB (2%) Audio #189-131 ID : 189 (0xBD)-131 (0x83) Format : AC-3 Format/Info : Audio Coding 3 Format profile : Dolby Digital Mode extension : CM (complete main) Format settings, Endianness : Big Muxing mode : DVD-Video Duration : 17mn 40s Bit rate mode : Constant Bit rate : 192 Kbps Channel count : 2 channels Channel positions : Front: L R Sampling rate : 48.0 KHz Bit depth : 16 bits Compression mode : Lossy Delay relative to video : -542ms Stream size : 24.3 MiB (2%) Text #224-CC3 ID : 224 (0xE0)-CC3 Format : EIA-608 Muxing mode, more info : Muxed in Video #1 Bit rate mode : Constant Stream size : 0.00 Byte (0%) Text #189-32 ID : 189 (0xBD)-32 (0x20) Format : RLE Format/Info : Run-length encoding Muxing mode : DVD-Video Text #189-33 ID : 189 (0xBD)-33 (0x21) Format : RLE Format/Info : Run-length encoding Muxing mode : DVD-Video
Скриншоты менюСкриншотыЗвездные Войны: Войны Клонов. Том 1 MVO (Iron Sound)

_________________
Показать сообщения:    

Текущее время: Сегодня 00:53

Часовой пояс: GMT



Вы не можете начинать темы
Вы не можете отвечать на сообщения
Вы не можете редактировать свои сообщения
Вы не можете удалять свои сообщения
Вы не можете голосовать в опросах
Вы не можете прикреплять файлы к сообщениям
Вы не можете скачивать файлы
Наши партнеры: интернет магазин Ивановского трикотажа textilla.ru