Ивановский Торрент трекер
Яндекс.Погода
 

[Цитировать]
HUNTER

За мостом / Hashi no Mukou / Beyond the Bridge
Страна: Япония
Год выпуска: 2012 г.
Жанр: фантастика
Тип: Movie
Продолжительность: 10 мин.
Режиссер: Цукахара Хигеёши
Студия: Japanese independent animation
Описание: Голос из далекого прошлого ведет нас. Ведомая им, юная девушка входит в другой мир, расположенный по ту сторону моста.
Доп. информация: Фильм занял первое место на 11 Независимом фестивале анимации.
Качество: BDRip
Тип релиза: Без хардсаба
Формат видео: MP4
Наличие линковки: Нет
Видео: H264, 1280x720, 8 bits, 1363 kbps, 24 fps
Аудио: AAC, 2ch, 192 kbps, 44.1kHz Язык Японский
Субтитры: ass, отдельным файлом Язык субтитров русский ; Перевод: Vii ; Редактор: Kimi
Подробные тех. данные
Format : MPEG-4Format profile : Base Media / Version 2Codec ID : mp42File size : 116 MiBDuration : 10mn 30sOverall bit rate mode : VariableOverall bit rate : 1 545 Kbps
VideoID : 1Format : AVCFormat/Info : Advanced Video CodecFormat profile : High@L3.1Format settings, CABAC : YesFormat settings, ReFrames : 1 frameCodec ID : avc1Codec ID/Info : Advanced Video CodingDuration : 10mn 30sBit rate : 1 363 KbpsMaximum bit rate : 3 309 KbpsWidth : 1 280 pixelsHeight : 720 pixelsDisplay aspect ratio : 16:9Frame rate mode : ConstantFrame rate : 24.000 fpsColor space : YUVChroma subsampling : 4:2:0Bit depth : 8 bitsScan type : ProgressiveBits/(Pixel*Frame) : 0.062Stream size : 102 MiB (88%)
AudioID : 2Format : AACFormat/Info : Advanced Audio CodecFormat profile : LCCodec ID : 40Duration : 10mn 30sBit rate mode : VariableBit rate : 192 KbpsMaximum bit rate : 202 KbpsChannel count : 2 channelsChannel positions : Front: L RSampling rate : 44.1 KHzCompression mode : LossyStream size : 14.4 MiB (12%)
Скриншоты


Показать сообщения:    

Текущее время: 17-Дек 02:33

Часовой пояс: UTC ± 0


Вы не можете начинать темы
Вы не можете отвечать на сообщения
Вы не можете редактировать свои сообщения
Вы не можете удалять свои сообщения
Вы не можете голосовать в опросах
Вы не можете прикреплять файлы к сообщениям
Вы не можете скачивать файлы

!ВНИМАНИЕ!
Сайт не предоставляет электронные версии произведений, а занимается лишь коллекционированием и каталогизацией ссылок, присылаемых и публикуемых на форуме нашими читателями. Если вы являетесь правообладателем какого-либо представленного материала и не желаете, чтобы ссылка на него находилась в нашем каталоге, свяжитесь с нами, и мы незамедлительно удалим ее. Файлы для обмена на трекере предоставлены пользователями сайта, и администрация не несет ответственности за их содержание. Просьба не заливать файлы, защищенные авторскими правами, а также файлы нелегального содержания!