Защитник / Concussion (Питер Ландесман / Peter Landesman) [2015, Великобритания, Австралия, США, драма, биография, спорт, BDRip 1080p] DUB (Blu-ray) + DVO (Паровоз Продакшн) + MVO (ColdFilm) + 4x Sub (Rus, Eng) + Original Eng :: Ивановский Торрент трекер
Важное объявление!
У Нас Все раздачи мультитрекерные, при нуле пиров в релизах, можете смело вставать на закачку!
Статистика раздачи
Размер:     |    Зарегистрирован:     |    Скачан:     |   
Нет
 
     
 
 
Автор Сообщение

HUNTER

Стаж:
4 года 11 месяцев
Сообщений:
66052

Репутация: 101

[+] [-]
Вне форума [Профиль] [ЛС]

Защитник / Concussion
Страна: Великобритания, Австралия, США
Жанр: драма, биография, спорт
Год выпуска: 2015
Продолжительность: 02:02:49
Перевод 1: Профессиональный (дублированный) Blu-Ray
Перевод 2: Любительский (двухголосый закадровый) Паровоз Продакшн
Перевод 3: Любительский (многоголосый закадровый) ColdFilm
Cубтитры: русские [Full, Forced], английские [Full, SDH]
Оригинальная аудиодорожка: английский
-
Режиссер: Питер Ландесман / Peter Landesman
В ролях: Уилл Смит, Алек Болдуин, Альберт Брукс, Гугу Эмбата-Ро, Дэвид Морс, Арлисс Ховард, Майк О’Мэлли, Эдди Марсан, Хилл Харпер, Адевале Акинойе-Агбаже
-
Описание: Америка потрясена чередой неожиданных и необъяснимых смертей знаменитых спортсменов. Разгадать загадку предстоит талантливому молодому нейрохирургу, но, как оказалось, не все готовы услышать жестокую правду...

Тип релиза: BDRip 1080p
Контейнер: MKV
Видео: H.264 / NTSC 16:9 / 1920x804 (2,40:1) / 12888 kbps / 23,976 fps / 0.348 bit/pixel / High@L4.1
Аудио 1: Russian / AC3 / 48 kHz / 5.1 Ch / 640 kbps / 16 bit / DUB
Аудио 2: Russian / AC3 / 48 kHz / 2.0 Ch / 192 kbps / 16 bit / DVO
Аудио 3: Russian / AC3 / 48 kHz / 2.0 Ch / 192 kbps / 16 bit / MVO
Аудио 4: English / DTS / 48 kHz / 5.1 Ch / 1509 kbps / 24 bit / Original
Формат субтитров: softsub (SRT)
Навигация по главам: есть

MediaInfo

Код:
Общее
Уникальный идентификатор                 : 209269728721669855770226229087980018047 (0x9D6FE23A27DCCCEA8BB16E9F5310D97F)
Полное имя                               : F:\Concussion.2015.BDRip.1080p.mkv
Формат                                   : Matroska
Версия формата                           : Version 4 / Version 2
Размер файла                             : 13,2 Гбайт
Продолжительность                        : 2 ч. 2 м.
Общий поток                              : 15,4 Мбит/сек
Название фильма                          : Release for RuTracker © flaSI-I
Дата кодирования                         : UTC 2016-08-07 15:50:44
Программа кодирования                    : mkvmerge v9.3.1 ('Mask Machine') 64bit
Библиотека кодирования                   : libebml v1.3.4 + libmatroska v1.4.5
Видео
Идентификатор                            : 1
Формат                                   : AVC
Формат/Информация                        : Advanced Video Codec
Профиль формата                          : High@L4.1
Параметр CABAC формата                   : Да
Параметр ReFrames формата                : 5 кадров
Идентификатор кодека                     : V_MPEG4/ISO/AVC
Продолжительность                        : 2 ч. 2 м.
Битрейт                                  : 12,9 Мбит/сек
Ширина                                   : 1920 пикселей
Высота                                   : 804 пикселя
Соотношение сторон                       : 2,40:1
Режим частоты кадров                     : Постоянный
Частота кадров                           : 23,976 (24000/1001) кадра/сек
Цветовое пространство                    : YUV
Субдискретизация насыщенности            : 4:2:0
Битовая глубина                          : 8 бит
Тип развёртки                            : Прогрессивная
Бит/(Пиксели*Кадры)                      : 0.348
Размер потока                            : 11,1 Гбайт (84%)
Библиотека кодирования                   : x264 core 146 r2538 121396c
Настройки программы                      : cabac=1 / ref=5 / deblock=1:-3:-3 / analyse=0x3:0x133 / me=umh / subme=11 / psy=1 / psy_rd=1.00:0.00 / mixed_ref=1 / me_range=32 / chroma_me=1 / trellis=2 / 8x8dct=1 / cqm=0 / deadzone=21,11 / fast_pskip=0 / chroma_qp_offset=-2 / threads=48 / lookahead_threads=6 / sliced_threads=0 / nr=0 / decimate=0 / interlaced=0 / bluray_compat=0 / constrained_intra=0 / bframes=10 / b_pyramid=2 / b_adapt=2 / b_bias=0 / direct=3 / weightb=1 / open_gop=0 / weightp=2 / keyint=240 / keyint_min=23 / scenecut=40 / intra_refresh=0 / rc_lookahead=150 / rc=crf / mbtree=0 / crf=15.5 / qcomp=0.60 / qpmin=0 / qpmax=69 / qpstep=4 / vbv_maxrate=62500 / vbv_bufsize=78125 / crf_max=0.0 / nal_hrd=none / filler=0 / ip_ratio=1.40 / pb_ratio=1.30 / aq=1:0.80
Язык                                     : English
Default                                  : Да
Forced                                   : Нет
Аудио #1
Идентификатор                            : 2
Формат                                   : AC-3
Формат/Информация                        : Audio Coding 3
Расширение режима                        : CM (complete main)
Параметр Endianness формата              : Big
Идентификатор кодека                     : A_AC3
Продолжительность                        : 2 ч. 2 м.
Вид битрейта                             : Постоянный
Битрейт                                  : 640 Кбит/сек
Каналы                                   : 6 каналов
Расположение каналов                     : Front: L C R, Side: L R, LFE
Частота                                  : 48,0 КГц
Частота кадров                           : 31,250 кадров/сек (1536 spf)
Метод сжатия                             : С потерями
Размер потока                            : 562 Мбайт (4%)
Заголовок                                : Дублированный / Blu-Ray
Язык                                     : Russian
Default                                  : Да
Forced                                   : Нет
Аудио #2
Идентификатор                            : 3
Формат                                   : AC-3
Формат/Информация                        : Audio Coding 3
Расширение режима                        : CM (complete main)
Параметр Endianness формата              : Big
Идентификатор кодека                     : A_AC3
Продолжительность                        : 2 ч. 2 м.
Вид битрейта                             : Постоянный
Битрейт                                  : 192 Кбит/сек
Каналы                                   : 2 канала
Расположение каналов                     : Front: L R
Частота                                  : 48,0 КГц
Частота кадров                           : 31,250 кадров/сек (1536 spf)
Метод сжатия                             : С потерями
Размер потока                            : 169 Мбайт (1%)
Заголовок                                : DVO / Паровоз Продакшн
Язык                                     : Russian
Default                                  : Нет
Forced                                   : Нет
Аудио #3
Идентификатор                            : 4
Формат                                   : AC-3
Формат/Информация                        : Audio Coding 3
Расширение режима                        : CM (complete main)
Параметр Endianness формата              : Big
Идентификатор кодека                     : A_AC3
Продолжительность                        : 2 ч. 2 м.
Вид битрейта                             : Постоянный
Битрейт                                  : 192 Кбит/сек
Каналы                                   : 2 канала
Расположение каналов                     : Front: L R
Частота                                  : 48,0 КГц
Частота кадров                           : 31,250 кадров/сек (1536 spf)
Метод сжатия                             : С потерями
Размер потока                            : 169 Мбайт (1%)
Заголовок                                : MVO / ColdFilm
Язык                                     : Russian
Default                                  : Нет
Forced                                   : Нет
Аудио #4
Идентификатор                            : 5
Формат                                   : DTS
Формат/Информация                        : Digital Theater Systems
Режим                                    : 16
Параметр Endianness формата              : Big
Идентификатор кодека                     : A_DTS
Продолжительность                        : 2 ч. 2 м.
Вид битрейта                             : Постоянный
Битрейт                                  : 1509 Кбит/сек
Каналы                                   : 6 каналов
Расположение каналов                     : Front: L C R, Side: L R, LFE
Частота                                  : 48,0 КГц
Частота кадров                           : 93,750 кадра/сек (512 spf)
Битовая глубина                          : 24 бит
Метод сжатия                             : С потерями
Размер потока                            : 1,29 Гбайт (10%)
Заголовок                                : Original
Язык                                     : English
Default                                  : Нет
Forced                                   : Нет
Текст #1
Идентификатор                            : 6
Формат                                   : UTF-8
Идентификатор кодека                     : S_TEXT/UTF8
Идентификатор кодека/Информация          : UTF-8 Plain Text
Продолжительность                        : 1 ч. 56 м.
Битрейт                                  : 1 бит/сек
Count of elements                        : 20
Размер потока                            : 1,56 Кбайт (0%)
Заголовок                                : Forced
Язык                                     : Russian
Default                                  : Да
Forced                                   : Нет
Текст #2
Идентификатор                            : 7
Формат                                   : UTF-8
Идентификатор кодека                     : S_TEXT/UTF8
Идентификатор кодека/Информация          : UTF-8 Plain Text
Продолжительность                        : 1 ч. 57 м.
Битрейт                                  : 96 бит/сек
Count of elements                        : 1383
Размер потока                            : 83,3 Кбайт (0%)
Заголовок                                : Full
Язык                                     : Russian
Default                                  : Нет
Forced                                   : Нет
Текст #3
Идентификатор                            : 8
Формат                                   : UTF-8
Идентификатор кодека                     : S_TEXT/UTF8
Идентификатор кодека/Информация          : UTF-8 Plain Text
Продолжительность                        : 1 ч. 57 м.
Битрейт                                  : 56 бит/сек
Count of elements                        : 1466
Размер потока                            : 48,8 Кбайт (0%)
Заголовок                                : Original
Язык                                     : English
Default                                  : Нет
Forced                                   : Нет
Текст #4
Идентификатор                            : 9
Формат                                   : UTF-8
Идентификатор кодека                     : S_TEXT/UTF8
Идентификатор кодека/Информация          : UTF-8 Plain Text
Продолжительность                        : 2 ч. 0 м.
Битрейт                                  : 62 бит/сек
Count of elements                        : 1713
Размер потока                            : 55,6 Кбайт (0%)
Заголовок                                : Original / SDH
Язык                                     : English
Default                                  : Нет
Forced                                   : Нет
Меню
00:00:00.000                             : en:Chapter 1
00:07:26.696                             : en:Chapter 2
00:14:41.631                             : en:Chapter 3
00:21:48.098                             : en:Chapter 4
00:29:36.566                             : en:Chapter 5
00:37:42.927                             : en:Chapter 6
00:43:44.539                             : en:Chapter 7
00:51:30.713                             : en:Chapter 8
00:59:35.447                             : en:Chapter 9
01:06:58.264                             : en:Chapter 10
01:13:07.508                             : en:Chapter 11
01:22:18.308                             : en:Chapter 12
01:30:34.721                             : en:Chapter 13
01:38:15.098                             : en:Chapter 14
01:46:46.942                             : en:Chapter 15
01:53:34.808                             : en:Chapter 16

Скриншоты


_________________
Показать сообщения:    

Текущее время: Сегодня 15:56

Часовой пояс: GMT



Вы не можете начинать темы
Вы не можете отвечать на сообщения
Вы не можете редактировать свои сообщения
Вы не можете удалять свои сообщения
Вы не можете голосовать в опросах
Вы не можете прикреплять файлы к сообщениям
Вы не можете скачивать файлы