Ивановский Торрент трекер
Яндекс.Погода
Статистика раздачи
Размер:  13.84 GB   |    Зарегистрирован:  3 года   |    Скачан:  0 раз

Полного источника не было: Никогда

 
     
 
 
 

[Цитировать]
HUNTER

Захватывающее время / The Spectacular Now
Страна: США
Жанр: драма
Год выпуска: 2013
Продолжительность: 01:35:03
Перевод: Профессиональный (многоголосый закадровый) iTunes
Cубтитры: Rus, Eng
Оригинальная аудиодорожка: английский
Режиссер: Джеймс Понсольдт / James Ponsoldt
В ролях: Майлз Теллер, Шейлин Вудли, Бри Ларсон, Масам Холден, Дайо Окенайи, Кайл Чандлер, Дженнифер Джейсон Ли, Ницци Файрес, Ава Лондон, Уитни Гойн ...
Описание: Старшеклассник Саттер Кили, обаятельный и хладнокровный, заводила вечеринок, живет настоящим моментом. Он любит свою работу в магазине мужской одежды, и не строит никаких планов на будущее. Точно прогрессирующий алкоголик, он никогда не расстается со своей флягой с виски. Когда его бросает подруга, Саттер напивается и просыпается на газоне в тени нависшей над ним Эйми Финики. Она другая: «милая девушка», увлекающаяся фантастикой, да к тому же без парня. В то время как Эйми мечтает о будущем, Саттер проживает в блаженном неведении захватывающее время, но каким-то образом, они сближаются.

Тип релиза: BDRip 1080p
Контейнер: MKV
Видео: MPEG-4 AVC, 18.5 Mбит/с, 1920x800, 23,976 fps
Аудио: Rus, AC3, 384 kb/s (6 ch), 48 kHz
Аудио 2: Eng, DTS, 1510 kb/s (6 ch), 48 kHz
Формат субтитров: softsub (SRT)

MediaInfo

Format : Matroska
Format version : Version 4 / Version 2
File size : 13.8 GiB
Duration : 1h 35mn
Overall bit rate : 20.8 Mbps
Movie name : Tonik
Encoded date : UTC 2014-12-02 08:09:42
Writing application : mkvmerge v7.1.0 ('Good Love') 64bit built on Jul 27 2014 13:06:55
Writing library : libebml v1.3.0 + libmatroska v1.4.1
DURATION : 01:32:59.210000000
NUMBER_OF_FRAMES : 1607
NUMBER_OF_BYTES : 55597
_STATISTICS_WRITING_APP : mkvmerge v7.1.0 ('Good Love') 64bit built on Jul 27 2014 13:06:55
_STATISTICS_WRITING_DATE_UTC : 2014-12-02 08:09:42
_STATISTICS_TAGS : BPS DURATION NUMBER_OF_FRAMES NUMBER_OF_BYTES
Video
ID : 1
Format : AVC
Format/Info : Advanced Video Codec
Format profile : High@L4.1
Format settings, CABAC : Yes
Format settings, ReFrames : 5 frames
Codec ID : V_MPEG4/ISO/AVC
Duration : 1h 35mn
Bit rate : 18.5 Mbps
Width : 1 920 pixels
Height : 800 pixels
Display aspect ratio : 2.40:1
Frame rate mode : Constant
Frame rate : 23.976 fps
Color space : YUV
Chroma subsampling : 4:2:0
Bit depth : 8 bits
Scan type : Progressive
Bits/(Pixel*Frame) : 0.503
Stream size : 12.3 GiB (89%)
Writing library : x264 core 140 r2377 1ca7bb9
Encoding settings : cabac=1 / ref=5 / deblock=1:-3:-3 / analyse=0x3:0x113 / me=tesa / subme=10 / psy=1 / psy_rd=1.10:0.00 / mixed_ref=1 / me_range=16 / chroma_me=1 / trellis=2 / 8x8dct=1 / cqm=0 / deadzone=21,11 / fast_pskip=0 / chroma_qp_offset=-2 / threads=12 / lookahead_threads=2 / sliced_threads=0 / nr=0 / decimate=0 / interlaced=0 / bluray_compat=0 / constrained_intra=0 / bframes=8 / b_pyramid=2 / b_adapt=2 / b_bias=0 / direct=3 / weightb=1 / open_gop=0 / weightp=2 / keyint=250 / keyint_min=23 / scenecut=40 / intra_refresh=0 / rc=crf / mbtree=0 / crf=16.0 / qcomp=0.75 / qpmin=0 / qpmax=69 / qpstep=4 / ip_ratio=1.30 / pb_ratio=1.20 / aq=1:0.70 / zones=128643,136747,crf=30
Language : English
Default : Yes
Forced : No
DURATION : 01:35:03.490000000
NUMBER_OF_FRAMES : 136747
NUMBER_OF_BYTES : 13510523043
_STATISTICS_WRITING_APP : mkvmerge v7.1.0 ('Good Love') 64bit built on Jul 27 2014 13:06:55
_STATISTICS_WRITING_DATE_UTC : 2014-12-02 08:09:42
_STATISTICS_TAGS : BPS DURATION NUMBER_OF_FRAMES NUMBER_OF_BYTES
Audio #1
ID : 2
Format : AC-3
Format/Info : Audio Coding 3
Mode extension : CM (complete main)
Format settings, Endianness : Big
Codec ID : A_AC3
Duration : 1h 35mn
Bit rate mode : Constant
Bit rate : 384 Kbps
Channel(s) : 6 channels
Channel positions : Front: L C R, Side: L R, LFE
Sampling rate : 48.0 KHz
Bit depth : 16 bits
Compression mode : Lossy
Stream size : 261 MiB (2%)
Title : iTunes
Language : Russian
Default : Yes
Forced : No
Audio #2
ID : 3
Format : DTS
Format/Info : Digital Theater Systems
Mode : 16
Format settings, Endianness : Big
Codec ID : A_DTS
Duration : 1h 35mn
Bit rate mode : Constant
Bit rate : 1 509 Kbps
Channel(s) : 6 channels
Channel positions : Front: L C R, Side: L R, LFE
Sampling rate : 48.0 KHz
Bit depth : 24 bits
Compression mode : Lossy
Stream size : 1.00 GiB (7%)
Language : English
Default : No
Forced : No
Text #1
ID : 4
Format : UTF-8
Codec ID : S_TEXT/UTF8
Codec ID/Info : UTF-8 Plain Text
Title : Елизавета Кандинская, Анна Погорелова
Language : Russian
Default : No
Forced : No
Text #2
ID : 5
Format : UTF-8
Codec ID : S_TEXT/UTF8
Codec ID/Info : UTF-8 Plain Text
Language : English
Default : No
Forced : No
Menu
00:00:00.000 : en:00:00:00.000
00:06:19.295 : en:00:06:19.295
00:13:07.161 : en:00:13:07.161
00:20:16.798 : en:00:20:16.798
00:28:03.473 : en:00:28:03.473
00:34:48.836 : en:00:34:48.836
00:40:39.186 : en:00:40:39.186
00:46:48.055 : en:00:46:48.055
00:54:09.955 : en:00:54:09.955
01:00:50.813 : en:01:00:50.813
01:09:21.282 : en:01:09:21.282
01:12:14.330 : en:01:12:14.330
01:15:49.628 : en:01:15:49.628
01:19:33.769 : en:01:19:33.769
01:24:04.247 : en:01:24:04.247
01:27:09.015 : en:01:27:09.015

Скриншоты

[iv-torrents.ru].t37725.torrent
Торрент: Зарегистрирован [ 2014-12-03 20:03 ] · 3DFF3BE3128CF7BB9CDB8DE36D99E62146F8C261

Скачать .torrent

Скачать

35 KB

Статус: проверено
Скачан: 0 раз
Размер: 13.84 GB
terms.php
Похожие темы


Показать сообщения:    

Текущее время: 13-Дек 09:28

Часовой пояс: UTC ± 0


Вы не можете начинать темы
Вы не можете отвечать на сообщения
Вы не можете редактировать свои сообщения
Вы не можете удалять свои сообщения
Вы не можете голосовать в опросах
Вы не можете прикреплять файлы к сообщениям
Вы можете скачивать файлы

!ВНИМАНИЕ!
Сайт не предоставляет электронные версии произведений, а занимается лишь коллекционированием и каталогизацией ссылок, присылаемых и публикуемых на форуме нашими читателями. Если вы являетесь правообладателем какого-либо представленного материала и не желаете, чтобы ссылка на него находилась в нашем каталоге, свяжитесь с нами, и мы незамедлительно удалим ее. Файлы для обмена на трекере предоставлены пользователями сайта, и администрация не несет ответственности за их содержание. Просьба не заливать файлы, защищенные авторскими правами, а также файлы нелегального содержания!