Ивановский Торрент трекер
Яндекс.Погода
 

[Цитировать]
димитри37

Захватчик / Invasor- Страна: Испания
Жанр: триллер
Год выпуска: 2012
Продолжительность: 01:35:03-Перевод: Одноголосый закадровый [den904]
Субтитры: нет
Режиссер: Даниэль Кальпарсоро / Daniel Calparsoro
В ролях: Алекс Хафнер, Антонио де ла Торре, Альберто Эмманн, Инма Куэста, Карра Элехальде, София Ория, Луис Захэра, Бернабе Фернандес, Бенжамин Натан-Серио, Изабель Бланко, Hwida, Хулио Перейра-Описание: Молодой врач Пабло отправляется в Ирак с гуманитарной миссией. Каждый день он выносит из-под обстрела раненых солдат, мирных граждан, женщин, детей, американцев, иракцев. Однажды попав в засаду иракских повстанцев, Пабло чудом остается жив, но в его памяти сохранились лишь отдельные картинки всего, что случилось после того злосчастного взрыва. Теперь Пабло предстоит выяснить правду и понять кто он - национальный герой, чье имя у всех на устах, или соучастник жуткого по своей жестокости преступления.-

-Сценарий: Хорхе Аренильяс / Jorge Arenillas, Хавьер Гуджон / Javier Gull�n, Фернандо Мариас / Fernando Mar�as
Продюсер: Хуан Гордон / Juan Gordon, Эмма Лустрес / Emma Lustres, Боржа Пена / Borja Pena, Хорди Беренгер / Jordi Berenguer
Оператор: Дэниэл Аранио / Daniel Aranyo
Композитор: Лукас Видал / Lucas Vidal
Бюджет: €3 000 000
Мировая премьера: 11 октября 2012-Качество: DVDRip
Контейнер: AVI
Видео: XviD, 720x304 (2.35:1), 1599 kbps, 25 fps, 0,292 bpp
Аудио: AC3 / 5.1 / 48 kHz / 448 kbps / 16 bit-

Media Info

General
Complete name : G:\Invasor.2012.DVDRip.L1.1400.avi
Format : AVI
Format/Info : Audio Video Interleave
File size : 1.37 GiB
Duration : 1h 35mn
Overall bit rate : 2 057 Kbps
Writing application : VirtualDubMod 1.5.10.2 (build 2540/release)
Writing library : VirtualDubMod build 2540/release
Video
ID : 0
Format : MPEG-4 Visual
Format profile : Advanced Simple@L5
Format settings, BVOP : 2
Format settings, QPel : No
Format settings, GMC : No warppoints
Format settings, Matrix : Default (H.263)
Muxing mode : Packed bitstream
Codec ID : XVID
Codec ID/Hint : XviD
Duration : 1h 35mn
Bit rate : 1 600 Kbps
Width : 720 pixels
Height : 304 pixels
Display aspect ratio : 2.35:1
Frame rate : 25.000 fps
Color space : YUV
Chroma subsampling : 4:2:0
Bit depth : 8 bits
Scan type : Progressive
Compression mode : Lossy
Bits/(Pixel*Frame) : 0.292
Stream size : 1.06 GiB (78%)
Writing library : XviD 64
Audio
ID : 1
Format : AC-3
Format/Info : Audio Coding 3
Mode extension : CM (complete main)
Codec ID : 2000
Duration : 1h 35mn
Bit rate mode : Constant
Bit rate : 448 Kbps
Channel(s) : 6 channels
Channel positions : Front: L C R, Side: L R, LFE
Sampling rate : 48.0 KHz
Bit depth : 16 bits
Compression mode : Lossy
Stream size : 305 MiB (22%)
Alignment : Split accross interleaves
Interleave, duration : 40 ms (1.00 video frame)
Interleave, preload duration : 500 ms

Скриншот с названием фильма

Скриншоты

Показать сообщения:    

Текущее время: 24-Сен 23:53

Часовой пояс: UTC - 1


Вы не можете начинать темы
Вы не можете отвечать на сообщения
Вы не можете редактировать свои сообщения
Вы не можете удалять свои сообщения
Вы не можете голосовать в опросах
Вы не можете прикреплять файлы к сообщениям
Вы не можете скачивать файлы

!ВНИМАНИЕ!
Сайт не предоставляет электронные версии произведений, а занимается лишь коллекционированием и каталогизацией ссылок, присылаемых и публикуемых на форуме нашими читателями. Если вы являетесь правообладателем какого-либо представленного материала и не желаете, чтобы ссылка на него находилась в нашем каталоге, свяжитесь с нами, и мы незамедлительно удалим ее. Файлы для обмена на трекере предоставлены пользователями сайта, и администрация не несет ответственности за их содержание. Просьба не заливать файлы, защищенные авторскими правами, а также файлы нелегального содержания!