Важное объявление!
У Нас Все раздачи мультитрекерные, при нуле пиров в релизах, можете смело вставать на закачку!
 
Автор Сообщение

HUNTER

Стаж:
4 года 5 месяцев
Сообщений:
60874

Репутация: 101

[+] [-]
Вне форума [Профиль] [ЛС]

Затемнение / Тёмная сторона / Жизнь как в кино / Fade to Black
Страна: США
Студия: Alleanza Cinematografica Italiana / Leisure Investments
Жанр: слэшер,драма
Год выпуска: 1980
Продолжительность: 01:44:55
Перевод: Авторский (одноголосый закадровый) Карповский
Перевод 2: Одноголосый закадровый Огородников
Cубтитры: нет
Оригинальная аудиодорожка: английский
Режиссер: Вернон Зиммерман / Vernon Zimmerman
В ролях: Деннис Кристофер, Тим Томерсон, Микки Рурк, Норман Бартон, Гвин Гилфорд
Описание: Эрик Бинфорд настоящий фанат кинематографа. Он смотрит множество фильмов, помнит наизусть многие монологи, знает всех актеров, восхищается кучей эпизодов. Но постепенно он путает реальную жизнь с тем, что видит на экране. Он сходит с ума и начинает воплощать наиболее запомнившиеся сцены из своих любимых фильмов в жизнь. Правда, все эти сцены заканчиваются смертельным исходом для противников Эрика…
Великолепный фильм, особенно для знатоков и эрудитов кино. Герой боготворит Мэрилин Монро, восхищается Хамфри Богартом. Он трансформируется в Ричарда Уидмарка из картины «Поцелуй смерти», превращается в графа Дракулу («Дракула», 1958). Помимо этих двух фильмов, в картине демонстрируются фрагменты фильмов «Враг народа», «Белая горячка», «Ночь живых мертвецов» (1968) и «Существо из черного озера» (1954). Музыку к фильму должен был написать Крис Штейн из группы «Blondie», но его контракт был аннулирован. Академия фантастических фильмов, фэнтази и фильмов ужасов США вручила картине свой приз «Сатурн» за лучшую актрису (Ева Брент), а номинировала за лучшую режиссуру, костюмы, грим, актера (Кристофер), актрису второго плана (Линда Керридж) и как лучший фильм ужасов года.
Доп. информация: Русские звуковые дорожки взяты с этой раздачи http://rutracker.org/forum/viewtopic.php?t=4301449 автору большое спасибо.
За синхронизацию дорожки огромное спасибо Нордер
При пересборе двд были использованы программы:
PgcDemux - разделение компонентов диска на файлы
Muxman - мультиплексирование и авторинг DVD
VobBlanker - реавторинг DVD

Скрин завершения проекта

Бонусы: Трейлер.
Сэмпл: http://sendfile.su/1088922
Тип релиза: DVD9 (Custom)
Контейнер: DVD-Video
Видео: NTSC 16:9 (720x480) VBR Auto Pan&Scan
Аудио: Russian (Dolby AC3, 192 Кбит/сек, 2 ch)
Аудио 2: Russian (Dolby AC3, 192 Кбит/сек, 2 ch)
Аудио 3: English (Dolby AC3, 192 Кбит/сек, 2 ch)

DVDInfo

Size: 4.54 Gb ( 4 764 420 KBytes ) - DVD-9
Enabled regions: 1, 2, 3, 4, 5, 6, 7, 8
VTS_01 :
Play Length: 01:41:56+00:02:59
Video: NTSC 16:9 (720x480) VBR, Auto Pan&Scan
Audio:
Russian (Dolby AC3, 2 ch)
Russian (Dolby AC3, 2 ch)
English (Dolby AC3, 2 ch)
Menu Video:
NTSC 4:3 (720x480) VBR
Menu Audio:
Not specified (Dolby AC3, 2 ch)
Menu Subtitles:
Not specified
Menu English Language Unit :
Root Menu

MediaInfo

Общее
Полное имя : M:\Fade to Black_1980\VIDEO_TS\VTS_01_1.VOB
Формат : MPEG-PS
Размер файла : 1024 Мбайт
Продолжительность : 22 м.
Режим общего битрейта : Переменный
Общий поток : 6401 Кбит/сек
Видео
Идентификатор : 224 (0xE0)
Формат : MPEG Video
Версия формата : Version 2
Профиль формата : Main@Main
Параметр BVOP формата : Да
Параметр матрицы формата : Выборочная
Параметр GOP формата : M=3, N=12
Продолжительность : 22 м.
Вид битрейта : Переменный
Битрейт : 5698 Кбит/сек
Ширина : 720 пикселей
Высота : 480 пикселей
Соотношение сторон : 16:9
Частота кадров : 23,976 кадра/сек
Стандарт вещания : NTSC
Цветовое пространство : YUV
Субдискретизация насыщенности : 4:2:0
Битовая глубина : 8 бит
Тип развёртки : Прогрессивная
Порядок развёртки : 2:3 Pulldown
Метод сжатия : С потерями
Бит/(Пиксели*Кадры) : 0.688
Размер потока : 911 Мбайт (89%)
Аудио #1
Идентификатор : 189 (0xBD)-128 (0x80)
Формат : AC-3
Формат/Информация : Audio Coding 3
Расширение режима : CM (complete main)
Параметр Endianness формата : Big
Режим смешивания : DVD-Video
Продолжительность : 22 м.
Вид битрейта : Постоянный
Битрейт : 192 Кбит/сек
Каналы : 2 канала
Расположение каналов : Front: L R
Частота : 48,0 КГц
Битовая глубина : 16 бит
Метод сжатия : С потерями
Задержка видео : -66 мс.
Размер потока : 30,7 Мбайт (3%)
Аудио #2
Идентификатор : 189 (0xBD)-129 (0x81)
Формат : AC-3
Формат/Информация : Audio Coding 3
Расширение режима : CM (complete main)
Параметр Endianness формата : Big
Режим смешивания : DVD-Video
Продолжительность : 22 м.
Вид битрейта : Постоянный
Битрейт : 192 Кбит/сек
Каналы : 2 канала
Расположение каналов : Front: L R
Частота : 48,0 КГц
Битовая глубина : 16 бит
Метод сжатия : С потерями
Задержка видео : -66 мс.
Размер потока : 30,7 Мбайт (3%)
Аудио #3
Идентификатор : 189 (0xBD)-130 (0x82)
Формат : AC-3
Формат/Информация : Audio Coding 3
Расширение режима : CM (complete main)
Параметр Endianness формата : Big
Режим смешивания : DVD-Video
Продолжительность : 22 м.
Вид битрейта : Постоянный
Битрейт : 192 Кбит/сек
Каналы : 2 канала
Расположение каналов : Front: L R
Частота : 48,0 КГц
Битовая глубина : 16 бит
Метод сжатия : С потерями
Задержка видео : -66 мс.
Размер потока : 30,7 Мбайт (3%)
Меню

Постеры

Скриншоты меню


_________________
Показать сообщения:    

Текущее время: Сегодня 06:58

Часовой пояс: GMT



Вы не можете начинать темы
Вы не можете отвечать на сообщения
Вы не можете редактировать свои сообщения
Вы не можете удалять свои сообщения
Вы не можете голосовать в опросах
Вы не можете прикреплять файлы к сообщениям
Вы не можете скачивать файлы
Наши партнеры: интернет магазин Ивановского трикотажа textilla.ru