Важное объявление!
У Нас Все раздачи мультитрекерные, при нуле пиров в релизах, можете смело вставать на закачку!
 
Автор Сообщение

HUNTER

Стаж:
4 года 10 месяцев
Сообщений:
65542

Репутация: 101

[+] [-]
Вне форума [Профиль] [ЛС]

Зарубежный роман / A Foreign Affair
Страна: США
Жанр: комедия
Год выпуска: 1948
Продолжительность: 01:56:20
Перевод 1: Профессиональный (многоголосый закадровый) - Film Prestige
Перевод 2: Профессиональный (многоголосый закадровый) - DVD Land
Cубтитры: русские, английские
Оригинальная аудиодорожка: английский
Режиссер: Билли Уайлдер / Billy Wilder
В ролях: Джин Артур, Марлен Дитрих, Джон Лунд, Миллард Митчелл, Питер фон Зернек, Стэнли Прэджер, Уильям Мерфи, Рэймонд Бонд
Описание: В послевоенный разрушенный Берлин из США прилетает сенатская комиссия, изучающая степень морального разложения оккупационных войск. Сенатор Фиби Фрост (Артур), строгая и неподкупная дама, ставит перед собой задачу вычислить американского офицера, имевшего наглость взять себе в любовницы певичку из ночного кафе Эрику (Дитрих), которая еще недавно была подругой одного из фашистских бонз. Фиби не может и представить, что повсюду сопровождающий ее капитан Прингл, молодой, красивый и обаятельный мужчина, в которого она потихоньку влюбляется, и есть тот самый образчик морального разложения...
Две номинации на премию Американской киноакадемии Oscar — лучшие сценарий и оператор. Номинация на WGA Screen Award Гильдии писателей США — лучший сценарий.
Nominated for 2 Oscars. Another 1 nomination
Доп. информация: К BDRip 720p, скачанному с забугорного трекера, добавлены русская звуковая дорожка и субтитры от FP с этой раздачи; и русская дорожка от DVD Land
Используемый софт: MKVtool, Subtitle Workshop, BeSweet, Sony Vegas 10
Сэмпл: http://multi-up.com/1083327
Тип релиза: BDRip 720p
Контейнер: MKV
Видео: AVC, 16257 Kbps, 976 x 720, 23,976fps
Аудио 1: Russian (Dolby AC3, 2 ch), 48 kHz, 192 kbps - DVD Land
Аудио 2: Russian (Dolby AC3, 2 ch), 48 kHz, 192 kbps - Film Prestige
Аудио 3: English (FLAC, 2 ch), 48 kHz, 248 kbps
Формат субтитров: UTF-8

MediaInfo

Matroska
Версия формата : Version 2
Размер файла : 10,2 Гбайт
Продолжительность : 1 ч. 56 м.
Режим общего битрейта : Переменный
Общий поток : 12,5 Мбит/сек
Дата кодирования : UTC 2016-01-09 13:04:38
Программа кодирования : mkvmerge v7.5.0 ('Glass Culture') 32bit built on Jan 4 2015 16:37:25
Библиотека кодирования : libebml v1.3.1 + libmatroska v1.4.2
DURATION : 01:53:36.550000000
NUMBER_OF_FRAMES : 1491
NUMBER_OF_BYTES : 64088
_STATISTICS_WRITING_APP : mkvmerge v7.5.0 ('Glass Culture') 32bit built on Jan 4 2015 16:37:25
_STATISTICS_WRITING_DATE_UTC : 2016-01-09 13:04:38
_STATISTICS_TAGS : BPS DURATION NUMBER_OF_FRAMES NUMBER_OF_BYTES
Видео
Идентификатор : 1
Формат : AVC
Формат/Информация : Advanced Video Codec
Профиль формата : High@L4.0
Параметр CABAC формата : Да
Параметр ReFrames формата : 11 кадров
Идентификатор кодека : V_MPEG4/ISO/AVC
Продолжительность : 1 ч. 56 м.
Ширина : 976 пикселей
Высота : 720 пикселей
Соотношение сторон : 4:3
Режим частоты кадров : Постоянный
Частота кадров : 23,976 кадра/сек
Цветовое пространство : YUV
Субдискретизация насыщенности : 4:2:0
Битовая глубина : 8 бит
Тип развёртки : Прогрессивная
Заголовок : A.Foreign.Affair.1948.720p.BluRay.FLAC.x264-HaB
Библиотека кодирования : x264 core 148 r2638 7599210
Настройки программы : cabac=1 / ref=11 / deblock=1:-3:-3 / analyse=0x3:0x133 / me=tesa / subme=11 / psy=1 / psy_rd=1.10:0.00 / mixed_ref=1 / me_range=24 / chroma_me=1 / trellis=2 / 8x8dct=1 / cqm=0 / deadzone=21,11 / fast_pskip=0 / chroma_qp_offset=-2 / threads=18 / lookahead_threads=4 / sliced_threads=0 / nr=0 / decimate=0 / interlaced=0 / bluray_compat=0 / constrained_intra=0 / bframes=12 / b_pyramid=2 / b_adapt=2 / b_bias=0 / direct=3 / weightb=1 / open_gop=0 / weightp=2 / keyint=250 / keyint_min=23 / scenecut=40 / intra_refresh=0 / rc=crf / mbtree=0 / crf=19.6 / qcomp=0.70 / qpmin=0 / qpmax=69 / qpstep=4 / ip_ratio=1.30 / pb_ratio=1.20 / aq=3:0.80
Язык : Russian
Default : Да
Forced : Нет
DURATION : 01:56:20.933000000
NUMBER_OF_FRAMES : 167375
NUMBER_OF_BYTES : 10336077886
_STATISTICS_WRITING_APP : mkvmerge v7.5.0 ('Glass Culture') 32bit built on Jan 4 2015 16:37:25
_STATISTICS_WRITING_DATE_UTC : 2016-01-09 13:04:38
_STATISTICS_TAGS : BPS DURATION NUMBER_OF_FRAMES NUMBER_OF_BYTES
Аудио #1
Идентификатор : 2
Формат : AC-3
Формат/Информация : Audio Coding 3
Расширение режима : CM (complete main)
Параметр Endianness формата : Big
Идентификатор кодека : A_AC3
Продолжительность : 1 ч. 56 м.
Вид битрейта : Постоянный
Битрейт : 192 Кбит/сек
Каналы : 2 канала
Расположение каналов : Front: L R
Частота : 48,0 КГц
Битовая глубина : 16 бит
Метод сжатия : С потерями
Размер потока : 160 Мбайт (2%)
Заголовок : DVD Land
Язык : Russian
Default : Да
Forced : Нет
Аудио #2
Идентификатор : 3
Формат : AC-3
Формат/Информация : Audio Coding 3
Расширение режима : CM (complete main)
Параметр Endianness формата : Big
Идентификатор кодека : A_AC3
Продолжительность : 1 ч. 56 м.
Вид битрейта : Постоянный
Битрейт : 192 Кбит/сек
Каналы : 2 канала
Расположение каналов : Front: L R
Частота : 48,0 КГц
Битовая глубина : 16 бит
Метод сжатия : С потерями
Размер потока : 160 Мбайт (2%)
Заголовок : FP
Язык : Russian
Default : Нет
Forced : Нет
Аудио #3
Идентификатор : 4
Формат : FLAC
Формат/Информация : Free Lossless Audio Codec
Идентификатор кодека : A_FLAC
Продолжительность : 1 ч. 56 м.
Вид битрейта : Переменный
Каналы : 2 канала
Частота : 48,0 КГц
Битовая глубина : 24 бит
Библиотека кодирования : libFLAC 1.2.1 (UTC 2007-09-17)
Язык : English
Default : Нет
Forced : Нет
Текст #1
Идентификатор : 5
Формат : UTF-8
Идентификатор кодека : S_TEXT/UTF8
Идентификатор кодека/Информация : UTF-8 Plain Text
Язык : Russian
Default : Нет
Forced : Нет
Текст #2
Идентификатор : 6
Формат : UTF-8
Идентификатор кодека : S_TEXT/UTF8
Идентификатор кодека/Информация : UTF-8 Plain Text
Язык : English
Default : Нет
Forced : Нет
Текст #3
Идентификатор : 7
Формат : UTF-8
Идентификатор кодека : S_TEXT/UTF8
Идентификатор кодека/Информация : UTF-8 Plain Text
Язык : German
Default : Нет
Forced : Нет
Меню
00:00:00.000 : en:Chapter 1
00:12:53.564 : en:Chapter 2
00:22:35.729 : en:Chapter 3
00:29:15.587 : en:Chapter 4
00:38:40.526 : en:Chapter 5
00:48:47.633 : en:Chapter 6
01:03:39.899 : en:Chapter 7
01:12:46.487 : en:Chapter 8
01:20:08.970 : en:Chapter 9
01:30:51.529 : en:Chapter 10
01:42:15.129 : en:Chapter 11
01:49:38.321 : en:Chapter 12

Скриншоты


_________________
Показать сообщения:    

Текущее время: Сегодня 22:35

Часовой пояс: GMT



Вы не можете начинать темы
Вы не можете отвечать на сообщения
Вы не можете редактировать свои сообщения
Вы не можете удалять свои сообщения
Вы не можете голосовать в опросах
Вы не можете прикреплять файлы к сообщениям
Вы не можете скачивать файлы