Важное объявление!
У Нас Все раздачи мультитрекерные, при нуле пиров в релизах, можете смело вставать на закачку!
 
Автор Сообщение

HUNTER

Стаж:
4 года 8 месяцев
Сообщений:
62060

Репутация: 101

[+] [-]
Вне форума [Профиль] [ЛС]

Зараженная / Maggie-
Страна: США, Швейцария
Студии: Gold Star Films, Grindstone Entertainment Group, Lionsgate, Lotus Entertainment (II), Matt Baer Films, Silver Reel, Sly Predator
Жанр: Драма, триллер, ужасы
Год выпуска: 2015-Дата мировой премьеры: 22 апреля 2015
Дата российской премьеры: 29 октября 2015-Продолжительность: 01:29:49
Перевод: Профессиональный (многоголосый закадровый) [Лицензия]
Cубтитры: Украинские
Оригинальная аудиодорожка: Нет-Режиссер: Генри Хобсон / Henry Hobson
Продюсеры: Мэттью Баэр, Колин Бейтс, Билл Джонсон
Актеры: Арнольд Шварценеггер, Эбигейл Бреслин, Джоэли Ричардсон, Дуглас М. Гриффин, Дж.Д. Эвермор, Рэйчел Уитман Гровс, Джоди Мур, Брайс Ромеро, Рэден Грир, Эйден Флауэрс-Описание:
Девочка-подросток Мэгги заражается болезнью, медленно превращающей инфицированных в зомби. Правительство организует карантин для инфицированных, где их помещают в изоляцию. Её любящий отец не готов помещать её в карантин, и она живёт вместе с ним.- -Качество: DVD5 (сжатый)
Формат: DVD-Video
Видео: MPEG-2, 720x576@1024x576 (PAL 16:9), ~6800 Кбит/сек
Аудио: AC3 5.1, 448 Кбит/сек [Русский - дублированный]

DVDInfo

Title: Maggie (2015) DVD5
Size: 4.38 Gb ( 4 588 886,00 KBytes ) - DVD-5
Enabled regions: 1, 2, 3, 4, 5, 6, 7, 8
VTS_01 :
Play Length: 01:29:49
Video: PAL 16:9 (720x576) VBR, Auto Letterboxed
Audio:
Russian (Dolby AC3, 6 ch)
Subtitles:
Ukrainian
* Menus Information *
VIDEO_TS Menu
Video:
NTSC 4:3 (720x480) VBR
Auto Pan&Scan, Auto Letterboxed
English Language Unit :
Title Menu
VTS_01 Menu
Video:
PAL 16:9 (720x576) VBR
Auto Letterboxed
Audio:
Not specified (Dolby AC3, 6 ch)
English Language Unit :
Root Menu
Chapter (PTT) Menu

MediaInfo

Общее
Полное имя : G:\Видео\Maggie (2015) DVD5\VIDEO_TS\VTS_01_1.VOB
Формат : MPEG-PS
Размер файла : 1024 Мбайт
Продолжительность : 19 м.
Режим общего битрейта : Переменный
Общий поток : 7384 Кбит/сек
Видео
Идентификатор : 224 (0xE0)
Формат : MPEG Video
Версия формата : Version 2
Профиль формата : Main@Main
Параметр BVOP формата : Да
Параметр матрицы формата : Выборочная
Параметр GOP формата : Variable
Продолжительность : 19 м.
Вид битрейта : Переменный
Битрейт : 6789 Кбит/сек
Максимальный битрейт : 9000 Кбит/сек
Ширина : 720 пикселей
Высота : 576 пикселей
Соотношение сторон : 16:9
Частота кадров : 25,000 кадров/сек
Стандарт вещания : PAL
Цветовое пространство : YUV
Субдискретизация насыщенности : 4:2:0
Битовая глубина : 8 бит
Тип развёртки : Прогрессивная
Порядок развёртки : Нижнее поле первое
Метод сжатия : С потерями
Бит/(Пиксели*Кадры) : 0.655
Временной код первого кадра : 00:00:00:00
Оригинал временного кода : Group of pictures header
GOP, открыто/закрыто : Открыто
GOP, открыто/закрыто на первом кадре : Закрыто
Размер потока : 941 Мбайт (92%)
Аудио
Идентификатор : 189 (0xBD)-128 (0x80)
Формат : AC-3
Формат/Информация : Audio Coding 3
Расширение режима : CM (complete main)
Параметр Endianness формата : Big
Режим смешивания : DVD-Video
Продолжительность : 19 м.
Вид битрейта : Постоянный
Битрейт : 448 Кбит/сек
Каналы : 6 каналов
Расположение каналов : Front: L C R, Side: L R, LFE
Частота : 48,0 КГц
Частота кадров : 31,250 кадров/сек (1536 spf)
Метод сжатия : С потерями
Задержка видео : -312 мс.
Размер потока : 62,1 Мбайт (6%)
Текст
Идентификатор : 189 (0xBD)-32 (0x20)
Формат : RLE
Формат/Информация : Run-length encoding
Режим смешивания : DVD-Video
Задержка видео : 120 мс.
Меню

Доп. информация

Исходник: [url=viewtopic.php?t=5269239]http://rutracker.org/forum/viewtopic.php?t=5269239[/url]
Удалены: анонсы (в меню кнопка затёрта).
Команды диска переписаны заново, оставлен один VTS.
Видео сжато на 13,5%.
Меню: статичное, недействующие кнопки затерты и закрыты.
Обработка и сжатие: DVD ReMake Pro + DVD Rebuilder + CCE SP2 [7 проходов] + Работа с меню (Adobe PhotoShop и MuxMan).
Скриншот финального проекта:

Лог кодирования DVD Rebuilder
-----------------
[18:43:20] Phase I, PREPARATION started.
- DVD-RB v1.28.2
- AVISYNTH 2.6.0.6
- CCE 1.0.1.9 encoder selected.
- Source: MAGGIE (2015) DVD5
- VTS_01: 2 585 117 sectors.
-- Scanning and writing .D2V & .AVS files
-- Processed 134 726 frames.
-- Building .AVS and .ECL files
- Reduction Level for DVD-5: 86,5%
- Overall Bitrate : 6 306Kbs
- Space for Video : 4 148 124KB
- HIGH/LOW/TYPICAL Bitrates: 7 178/4 154/6 306 Kbs
[19:04:57] Phase I, PREPARATION completed in 21 minutes.
- WARNING: Viewer/Editor settings are over target.
[19:06:20] Phase II ENCODING started
- Creating M2V for VTS_01 segment 0
- Creating M2V for VTS_01 segment 1
- Creating M2V for VTS_01 segment 2
- Creating M2V for VTS_01 segment 3
- Creating M2V for VTS_01 segment 4
- Creating M2V for VTS_01 segment 5
- Creating M2V for VTS_01 segment 6
- Creating M2V for VTS_01 segment 7
- Creating M2V for VTS_01 segment 8
[20:20:40] Phase II ENCODING completed in 74 minutes.
- WARNING: Viewer/Editor settings are over target.
[20:20:54] Phase III, REBUILD started.
- Copying IFO, BUP, and unaltered files...
- Processing VTS_01
- Reading/processing TMAP table...
- Rebuilding seg 0 VOBID 1 CELLID 1
- Rebuilding seg 1 VOBID 1 CELLID 2
- Rebuilding seg 2 VOBID 1 CELLID 3
- Rebuilding seg 3 VOBID 1 CELLID 4
- Rebuilding seg 4 VOBID 1 CELLID 5
- Rebuilding seg 5 VOBID 1 CELLID 6
- Rebuilding seg 6 VOBID 1 CELLID 7
- Rebuilding seg 7 VOBID 1 CELLID 8
- Rebuilding seg 8 VOBID 1 CELLID 9
- Updating NAVPACKS for VOBID_01
- Updated VTS_C_ADT.
- Updated VTS_VOBU_ADMAP.
- Updated IFO: VTS_01_0.IFO
- Updating TMAP table...
- Correcting VTS Sectors...
[20:58:54] Phase III, REBUILD completed in 38 minutes.
Done.
-

Скриншоты меню

Скриншоты фильма


_________________
Показать сообщения:    

Текущее время: Сегодня 07:46

Часовой пояс: GMT



Вы не можете начинать темы
Вы не можете отвечать на сообщения
Вы не можете редактировать свои сообщения
Вы не можете удалять свои сообщения
Вы не можете голосовать в опросах
Вы не можете прикреплять файлы к сообщениям
Вы не можете скачивать файлы
Наши партнеры: интернет магазин Ивановского трикотажа textilla.ru