Важное объявление!
У Нас Все раздачи мультитрекерные, при нуле пиров в релизах, можете смело вставать на закачку!
 
Автор Сообщение

HUNTER

Стаж:
4 года 8 месяцев
Сообщений:
62050

Репутация: 101

[+] [-]
Вне форума [Профиль] [ЛС]

Зараженная / Мэгги / Maggie-
Страна: США, Швейцария
Жанр: Постапокалиптика, Зомби-апокалипсис, Драма, Фильм ужасов
Год выпуска: 2015
Продолжительность: 01:35:04-Перевод 1: Профессиональный (многоголосый закадровый) | іTunеs
Перевод 2: Любительский (одноголосый закадровый) | Lord32x
Cубтитры: Rus (Full), 2xEng
Оригинальная аудиодорожка: английский-Режиссер: Генри Хобсон / Henry Hobson-В ролях: Арнольд Шварценеггер, Эбигейл Бреслин, Джоэли Ричардсон, Лора Кайюэтт, Эми Брассетт, Денис Уильямсон, Дж.Д. Эвермор, Рэден Грир, Эйден Флауэрс, Тейлор Мерфи-Описание: Девочка-подросток Мэгги заражается болезнью, медленно превращающей инфицированных в зомби. Правительство организует карантин для инфицированных, где их помещают в изоляцию. Её любящий отец не готов помещать её в карантин, и она живёт вместе с ним.-Sample-Тип релиза: BDRip 720p
Контейнер: MKV-Видео: H.264, 1280x534 (2.40:1), 7007 kbps, 23.976 fps
Аудио 1 (Rus): AC-3, 384 kbps, 6 ch, 48 kHz | іTunеs
Аудио 2 (Rus): AC-3, 384 kbps, 6 ch, 48 kHz | Lord32x
Аудио 3 (Eng): DTS, 1509 kbps, 6 ch, 48 kHz
Субтитры 1 (Rus): SRT (Full)
Субтитры 2 (Eng): HDMV PGS
Субтитры 3 (Eng): HDMV PGS
Главы: 16 глав-

MediaInfo

GeneralFormat : MatroskaFormat version : Version 4 / Version 2File size : 6.18 GiBDuration : 1h 35mnOverall bit rate : 9 302 KbpsMovie name : Maggie.2015Encoded date : UTC 2016-08-02 22:41:11Writing application : mkvmerge v8.9.0 ('Father Daughter') 64bitWriting library : libebml v1.3.3 + libmatroska v1.4.4
VideoID : 1Format : AVCFormat/Info : Advanced Video CodecFormat profile : High@L4.1Format settings, CABAC : YesFormat settings, ReFrames : 12 framesCodec ID : V_MPEG4/ISO/AVCDuration : 1h 35mnBit rate : 7 007 KbpsWidth : 1 280 pixelsHeight : 534 pixelsDisplay aspect ratio : 2.40:1Frame rate mode : ConstantFrame rate : 23.976 (24000/1001) fpsColor space : YUVChroma subsampling : 4:2:0Bit depth : 8 bitsScan type : ProgressiveBits/(Pixel*Frame) : 0.428Stream size : 4.65 GiB (75%)Writing library : x264 core 146 r2538 121396cEncoding settings : cabac=1 / ref=12 / deblock=1:-3:-3 / analyse=0x3:0x133 / me=umh / subme=10 / psy=1 / psy_rd=1.00:0.00 / mixed_ref=1 / me_range=48 / chroma_me=1 / trellis=2 / 8x8dct=1 / cqm=0 / deadzone=21,11 / fast_pskip=1 / chroma_qp_offset=-2 / threads=16 / lookahead_threads=2 / sliced_threads=0 / nr=0 / decimate=1 / interlaced=0 / bluray_compat=0 / constrained_intra=0 / bframes=8 / b_pyramid=2 / b_adapt=2 / b_bias=0 / direct=3 / weightb=1 / open_gop=0 / weightp=2 / keyint=240 / keyint_min=23 / scenecut=40 / intra_refresh=0 / rc_lookahead=150 / rc=crf / mbtree=0 / crf=18.5 / qcomp=0.68 / qpmin=10 / qpmax=51 / qpstep=3 / vbv_maxrate=50000 / vbv_bufsize=62500 / crf_max=0.0 / nal_hrd=none / filler=0 / ip_ratio=1.20 / pb_ratio=1.30 / aq=2:0.60Language : EnglishDefault : YesForced : NoColor range : LimitedMatrix coefficients : BT.709
Audio #1ID : 2Format : AC-3Format/Info : Audio Coding 3Mode extension : CM (complete main)Format settings, Endianness : BigCodec ID : A_AC3Duration : 1h 35mnBit rate mode : ConstantBit rate : 384 KbpsChannel(s) : 6 channelsChannel positions : Front: L C R, Side: L R, LFESampling rate : 48.0 KHzFrame rate : 31.250 fps (1536 spf)Compression mode : LossyStream size : 261 MiB (4%)Title : MVO (iTunes)Language : RussianDefault : YesForced : No
Audio #2ID : 3Format : AC-3Format/Info : Audio Coding 3Mode extension : CM (complete main)Format settings, Endianness : BigCodec ID : A_AC3Duration : 1h 35mnBit rate mode : ConstantBit rate : 384 KbpsChannel(s) : 6 channelsChannel positions : Front: L C R, Side: L R, LFESampling rate : 48.0 KHzFrame rate : 31.250 fps (1536 spf)Compression mode : LossyDelay relative to video : 10msStream size : 261 MiB (4%)Title : VO (Lord32x)Language : RussianDefault : NoForced : No
Audio #3ID : 4Format : DTSFormat/Info : Digital Theater SystemsMode : 16Format settings, Endianness : BigCodec ID : A_DTSDuration : 1h 35mnBit rate mode : ConstantBit rate : 1 509 KbpsChannel(s) : 6 channelsChannel positions : Front: L C R, Side: L R, LFESampling rate : 48.0 KHzFrame rate : 93.750 fps (512 spf)Bit depth : 24 bitsCompression mode : LossyStream size : 1.00 GiB (16%)Language : EnglishDefault : NoForced : No
Text #1ID : 5Format : UTF-8Codec ID : S_TEXT/UTF8Codec ID/Info : UTF-8 Plain TextDuration : 1h 21mnBit rate : 49 bpsCount of elements : 657Stream size : 29.5 KiB (0%)Title : FullLanguage : RussianDefault : NoForced : No
Text #2ID : 6Format : PGSMuxing mode : zlibCodec ID : S_HDMV/PGSCodec ID/Info : Picture based subtitle format used on BDs/HD-DVDsDuration : 1h 21mnBit rate : 7 420 bpsCount of elements : 1304Stream size : 4.34 MiB (0%)Language : EnglishDefault : NoForced : No
Text #3ID : 7Format : PGSMuxing mode : zlibCodec ID : S_HDMV/PGSCodec ID/Info : Picture based subtitle format used on BDs/HD-DVDsDuration : 1h 32mnBit rate : 8 808 bpsCount of elements : 1680Stream size : 5.80 MiB (0%)Language : EnglishDefault : NoForced : No
Menu00:00:00.000 : en:00:00:00.00000:05:52.936 : en:00:05:52.93600:11:26.102 : en:00:11:26.10200:15:55.121 : en:00:15:55.12100:21:30.498 : en:00:21:30.49800:26:50.609 : en:00:26:50.60900:35:09.065 : en:00:35:09.06500:39:17.939 : en:00:39:17.93900:43:35.780 : en:00:43:35.78000:50:51.131 : en:00:50:51.13100:58:38.014 : en:00:58:38.01401:02:09.517 : en:01:02:09.51701:10:28.808 : en:01:10:28.80801:17:32.189 : en:01:17:32.18901:23:27.502 : en:01:23:27.50201:26:38.693 : en:01:26:38.693

Скриншоты

-

_________________
Показать сообщения:    

Текущее время: Сегодня 16:41

Часовой пояс: GMT



Вы не можете начинать темы
Вы не можете отвечать на сообщения
Вы не можете редактировать свои сообщения
Вы не можете удалять свои сообщения
Вы не можете голосовать в опросах
Вы не можете прикреплять файлы к сообщениям
Вы не можете скачивать файлы
Наши партнеры: интернет магазин Ивановского трикотажа textilla.ru