Ивановский Торрент трекер
Яндекс.Погода
 

[Цитировать]
HUNTER

Зараженная / Мэгги / Maggie- Страна: США, Швейцария
Жанр: Постапокалиптика, Зомби-апокалипсис, Драма, Фильм ужасов
Год выпуска: 2015
Продолжительность: 01:35:03-Перевод 1: Профессиональный (многоголосый закадровый) | іTunеs
Перевод 2: Любительский (одноголосый закадровый) | Lord32x
Cубтитры: русские (полные), английские (полные), английские (SDH)
Оригинальная аудиодорожка: английский-Режиссер: Генри Хобсон / Henry Hobson-В ролях: Арнольд Шварценеггер, Эбигейл Бреслин, Джоэли Ричардсон, Лора Кайюэтт, Эми Брассетт, Денис Уильямсон, Дж.Д. Эвермор, Рэден Грир, Эйден Флауэрс, Тейлор Мерфи-Описание: Девочка-подросток Мэгги заражается болезнью, медленно превращающей инфицированных в зомби. Правительство организует карантин для инфицированных, где их помещают в изоляцию. Её любящий отец не готов помещать её в карантин, и она живёт вместе с ним.-Sample-Тип релиза: BDRip 1080p
Контейнер: MKV-Видео: H.264, 1920x800 (2.40:1), 17 Mbps, 23.976 fps
Аудио 1 (Rus): AC-3, 384 kbps, 6 ch, 48 kHz | іTunеs
Аудио 2 (Rus): AC-3, 384 kbps, 6 ch, 48 kHz | Lord32x
Аудио 3 (Eng): DTS, 1509 kbps, 6 ch, 48 kHz
Субтитры 1 (Rus): SRT (Full)
Субтитры 2 (Eng): SRT (Full)
Субтитры 3 (Eng): SRT (SDH)
Главы: 16 глав-

MediaInfo

GeneralFormat : MatroskaFormat version : Version 4 / Version 2File size : 12.8 GiBDuration : 1h 35mnOverall bit rate : 19.3 MbpsMovie name : Maggie.2015Encoded date : UTC 2016-08-01 12:13:43Writing application : mkvmerge v8.9.0 ('Father Daughter') 64bitWriting library : libebml v1.3.3 + libmatroska v1.4.4
VideoID : 1Format : AVCFormat/Info : Advanced Video CodecFormat profile : High@L4.1Format settings, CABAC : YesFormat settings, ReFrames : 5 framesCodec ID : V_MPEG4/ISO/AVCDuration : 1h 35mnBit rate : 17.0 MbpsWidth : 1 920 pixelsHeight : 800 pixelsDisplay aspect ratio : 2.40:1Frame rate mode : ConstantFrame rate : 23.976 fpsColor space : YUVChroma subsampling : 4:2:0Bit depth : 8 bitsScan type : ProgressiveBits/(Pixel*Frame) : 0.462Stream size : 11.3 GiB (88%)Writing library : x264 core 146 r2538 121396cEncoding settings : cabac=1 / ref=5 / deblock=1:-2:-2 / analyse=0x3:0x33 / me=umh / subme=11 / psy=1 / psy_rd=1.10:0.10 / mixed_ref=1 / me_range=32 / chroma_me=1 / trellis=2 / 8x8dct=1 / cqm=0 / deadzone=21,11 / fast_pskip=0 / chroma_qp_offset=-3 / threads=12 / lookahead_threads=2 / sliced_threads=0 / nr=0 / decimate=0 / interlaced=0 / bluray_compat=0 / constrained_intra=0 / bframes=9 / b_pyramid=2 / b_adapt=2 / b_bias=0 / direct=3 / weightb=1 / open_gop=0 / weightp=2 / keyint=240 / keyint_min=23 / scenecut=40 / intra_refresh=0 / rc=2pass / mbtree=0 / bitrate=17000 / ratetol=1.0 / qcomp=0.60 / qpmin=0 / qpmax=69 / qpstep=4 / cplxblur=20.0 / qblur=0.5 / ip_ratio=1.40 / pb_ratio=1.30 / aq=3:0.90Language : EnglishDefault : YesForced : No
Audio #1ID : 2Format : AC-3Format/Info : Audio Coding 3Mode extension : CM (complete main)Format settings, Endianness : BigCodec ID : A_AC3Duration : 1h 35mnBit rate mode : ConstantBit rate : 384 KbpsChannel(s) : 6 channelsChannel positions : Front: L C R, Side: L R, LFESampling rate : 48.0 KHzFrame rate : 31.250 fps (1536 spf)Compression mode : LossyStream size : 261 MiB (2%)Title : MVO (iTunes)Language : RussianDefault : YesForced : No
Audio #2ID : 3Format : AC-3Format/Info : Audio Coding 3Mode extension : CM (complete main)Format settings, Endianness : BigCodec ID : A_AC3Duration : 1h 35mnBit rate mode : ConstantBit rate : 384 KbpsChannel(s) : 6 channelsChannel positions : Front: L C R, Side: L R, LFESampling rate : 48.0 KHzFrame rate : 31.250 fps (1536 spf)Compression mode : LossyStream size : 261 MiB (2%)Title : VO (Lord32x)Language : RussianDefault : NoForced : No
Audio #3ID : 4Format : DTSFormat/Info : Digital Theater SystemsMode : 16Format settings, Endianness : BigCodec ID : A_DTSDuration : 1h 35mnBit rate mode : ConstantBit rate : 1 509 KbpsChannel(s) : 6 channelsChannel positions : Front: L C R, Side: L R, LFESampling rate : 48.0 KHzFrame rate : 93.750 fps (512 spf)Bit depth : 24 bitsCompression mode : LossyStream size : 1.00 GiB (8%)Language : EnglishDefault : NoForced : No
Text #1ID : 5Format : UTF-8Codec ID : S_TEXT/UTF8Codec ID/Info : UTF-8 Plain TextDuration : 1h 21mnBit rate : 49 bpsCount of elements : 657Stream size : 29.5 KiB (0%)Title : FullLanguage : RussianDefault : NoForced : No
Text #2ID : 6Format : UTF-8Codec ID : S_TEXT/UTF8Codec ID/Info : UTF-8 Plain TextDuration : 1h 21mnBit rate : 31 bpsCount of elements : 652Stream size : 19.2 KiB (0%)Title : FullLanguage : EnglishDefault : NoForced : No
Text #3ID : 7Format : UTF-8Codec ID : S_TEXT/UTF8Codec ID/Info : UTF-8 Plain TextDuration : 1h 32mnBit rate : 36 bpsCount of elements : 840Stream size : 24.6 KiB (0%)Title : SDHLanguage : EnglishDefault : NoForced : No
Menu00:00:00.000 : en:00:00:00.00000:05:52.936 : en:00:05:52.93600:11:26.102 : en:00:11:26.10200:15:55.121 : en:00:15:55.12100:21:30.498 : en:00:21:30.49800:26:50.609 : en:00:26:50.60900:35:09.065 : en:00:35:09.06500:39:17.939 : en:00:39:17.93900:43:35.780 : en:00:43:35.78000:50:51.131 : en:00:50:51.13100:58:38.014 : en:00:58:38.01401:02:09.517 : en:01:02:09.51701:10:28.808 : en:01:10:28.80801:17:32.189 : en:01:17:32.18901:23:27.502 : en:01:23:27.50201:26:38.693 : en:01:26:38.693

Скриншоты

-
Показать сообщения:    

Текущее время: 22-Окт 03:38

Часовой пояс: UTC - 1


Вы не можете начинать темы
Вы не можете отвечать на сообщения
Вы не можете редактировать свои сообщения
Вы не можете удалять свои сообщения
Вы не можете голосовать в опросах
Вы не можете прикреплять файлы к сообщениям
Вы не можете скачивать файлы

!ВНИМАНИЕ!
Сайт не предоставляет электронные версии произведений, а занимается лишь коллекционированием и каталогизацией ссылок, присылаемых и публикуемых на форуме нашими читателями. Если вы являетесь правообладателем какого-либо представленного материала и не желаете, чтобы ссылка на него находилась в нашем каталоге, свяжитесь с нами, и мы незамедлительно удалим ее. Файлы для обмена на трекере предоставлены пользователями сайта, и администрация не несет ответственности за их содержание. Просьба не заливать файлы, защищенные авторскими правами, а также файлы нелегального содержания!