Важное объявление!
У Нас Все раздачи мультитрекерные, при нуле пиров в релизах, можете смело вставать на закачку!
Статистика раздачи
Размер:     |    Зарегистрирован:     |    Скачан:     |   
Нет
 
     
 
 
Автор Сообщение

HUNTER

Стаж:
5 лет
Сообщений:
67898

Репутация: 101

[+] [-]
Вне форума [Профиль] [ЛС]

Заповедник / Preservation
Страна: США
Жанр: ужасы, триллер
Год выпуска: 2014
Продолжительность: 01:28:15
Перевод:
  • Любительский (двухголосый закадровый) HamsterStudio (Ариса Лебедева, Андрей Жариков) // Перевод: Антон Кедров
  • Одноголосый закадровый xixidok // Перевод: Ворон и Хихикающий Доктор
    Cубтитры: английские, русские (Антон Кедров)
    Оригинальная аудиодорожка: английский
    Режиссер: Кристофер Денэм / Christopher Denham
    В ролях: Пабло Шрайбер, Аарон Стэтон, Ренн Шмидт, Cody Saintgnue, Ник Сашо, Майкл Чакон
    Описание:
    Два брата, Шон и Майк и жена Майка отправляются поохотится, чтоб отвлечься от домашних проблем. Не обращая внимания на запрещающие знаки, они проникают в закрытый заповедник…
    - || -Тип релиза: WEB-DL 720p

    Контейнер: MKV
    Видео: AVC (x264), 1280x544 (2,35:1) at 23,976 fps, 3877 Кbps, 0.232 bpp
    Аудио 1: AC3; 384 Kbps; CBR; 6 ch; 48 khz | DVO - HamsterStudio |
    Аудио 2: AC3; 384 Kbps; CBR; 6 ch; 48 khz | VO - xixidok |
    Аудио 3: AC3; 384 Kbps; CBR; 6 ch; 48 khz | Английский |
    Формат субтитров: softsub (SRT)

    Скриншоты || x264 Info || MediaInfo || Notes

    MediaInfo
    Код:
    General
    Unique ID                                : 176081571067724403794280546814362530853 (0x847813B8B93BBF6393BEDE2CCAFA3425)
    Complete name                            : Заповедник.2014.DVO.720p.WEB-DL.x264-RARBG.mkv
    Format                                   : Matroska
    Format version                           : Version 4 / Version 2
    File size                                : 3.16 GiB
    Duration                                 : 1h 28mn
    Overall bit rate                         : 5 131 Kbps
    Movie name                               : Preservation [2014] [720p] DVO, VO
    Encoded date                             : UTC 2015-01-25 19:10:55
    Writing application                      : mkvmerge v7.5.0 ('Glass Culture') 32bit built on Jan  4 2015 16:37:25
    Writing library                          : libebml v1.3.1 + libmatroska v1.4.2
    Video
    ID                                       : 1
    Format                                   : AVC
    Format/Info                              : Advanced Video Codec
    Format profile                           : Main@L3.1
    Format settings, CABAC                   : No
    Format settings, ReFrames                : 2 frames
    Codec ID                                 : V_MPEG4/ISO/AVC
    Duration                                 : 1h 28mn
    Bit rate                                 : 3 877 Kbps
    Width                                    : 1 280 pixels
    Height                                   : 544 pixels
    Display aspect ratio                     : 2.35:1
    Frame rate mode                          : Constant
    Frame rate                               : 23.976 fps
    Color space                              : YUV
    Chroma subsampling                       : 4:2:0
    Bit depth                                : 8 bits
    Scan type                                : Progressive
    Bits/(Pixel*Frame)                       : 0.232
    Stream size                              : 2.39 GiB (76%)
    Title                                    : profile.php?mode=viewprofile&u=22488948
    Language                                 : English
    Default                                  : Yes
    Forced                                   : No
    Color primaries                          : BT.709
    Transfer characteristics                 : BT.709
    Matrix coefficients                      : BT.709
    Audio #1
    ID                                       : 2
    Format                                   : AC-3
    Format/Info                              : Audio Coding 3
    Mode extension                           : CM (complete main)
    Format settings, Endianness              : Big
    Codec ID                                 : A_AC3
    Duration                                 : 1h 28mn
    Bit rate mode                            : Constant
    Bit rate                                 : 384 Kbps
    Channel(s)                               : 6 channels
    Channel positions                        : Front: L C R, Side: L R, LFE
    Sampling rate                            : 48.0 KHz
    Bit depth                                : 16 bits
    Compression mode                         : Lossy
    Stream size                              : 242 MiB (7%)
    Title                                    : DVO (HamsterStudio)
    Language                                 : Russian
    Default                                  : Yes
    Forced                                   : No
    Audio #2
    ID                                       : 3
    Format                                   : AC-3
    Format/Info                              : Audio Coding 3
    Mode extension                           : CM (complete main)
    Format settings, Endianness              : Big
    Codec ID                                 : A_AC3
    Duration                                 : 1h 28mn
    Bit rate mode                            : Constant
    Bit rate                                 : 384 Kbps
    Channel(s)                               : 6 channels
    Channel positions                        : Front: L C R, Side: L R, LFE
    Sampling rate                            : 48.0 KHz
    Bit depth                                : 16 bits
    Compression mode                         : Lossy
    Stream size                              : 242 MiB (7%)
    Title                                    : VO [xixidok]
    Language                                 : Russian
    Default                                  : No
    Forced                                   : No
    Audio #3
    ID                                       : 4
    Format                                   : AC-3
    Format/Info                              : Audio Coding 3
    Mode extension                           : CM (complete main)
    Format settings, Endianness              : Big
    Codec ID                                 : A_AC3
    Duration                                 : 1h 28mn
    Bit rate mode                            : Constant
    Bit rate                                 : 384 Kbps
    Channel(s)                               : 6 channels
    Channel positions                        : Front: L C R, Side: L R, LFE
    Sampling rate                            : 48.0 KHz
    Bit depth                                : 16 bits
    Compression mode                         : Lossy
    Stream size                              : 242 MiB (7%)
    Language                                 : English
    Default                                  : No
    Forced                                   : No
    Text #1
    ID                                       : 5
    Format                                   : UTF-8
    Codec ID                                 : S_TEXT/UTF8
    Codec ID/Info                            : UTF-8 Plain Text
    Language                                 : English
    Default                                  : No
    Forced                                   : No
    Text #2
    ID                                       : 6
    Format                                   : UTF-8
    Codec ID                                 : S_TEXT/UTF8
    Codec ID/Info                            : UTF-8 Plain Text
    Title                                    : [antonio]
    Language                                 : Russian
    Default                                  : No
    Forced                                   : No
    Menu
    00:00:00.000                             : en:Opening
    00:05:21.000                             : en:Gas Station
    00:11:18.000                             : en:Deer Blind
    00:18:46.000                             : en:Campfire
    00:28:04.000                             : en:Morning
    00:36:16.000                             : en:Dog Toy
    00:42:56.000                             : en:Ranger Station
    00:55:40.000                             : en:Cliff's Edge
    01:07:02.000                             : en:Flares
    01:14:28.000                             : en:Drag
    01:20:16.000                             : en:Swings
    Цитата: За аудиодорожку №2, спасибо - доброму доктору За аудиодорожку №1, спасибо - HamsterStudio За русские субтитры, спасибо - Paul Banks

  • _________________
    Показать сообщения:    

    Текущее время: Сегодня 12:45

    Часовой пояс: GMT



    Вы не можете начинать темы
    Вы не можете отвечать на сообщения
    Вы не можете редактировать свои сообщения
    Вы не можете удалять свои сообщения
    Вы не можете голосовать в опросах
    Вы не можете прикреплять файлы к сообщениям
    Вы не можете скачивать файлы