Ивановский Торрент трекер
Яндекс.Погода
 

[Цитировать]
HUNTER

Запах успеха / The Smell of Success
Страна: США
Жанр: комедия
Год выпуска: 2009
Продолжительность: 01:26:57
Перевод: Профессиональный (многоголосый закадровый)
Cубтитры: нет
Оригинальная аудиодорожка: нет
Режиссер: Майкл Полиш
В ролях: Билли Боб Торнтон, Теа Леони, Марк Полиш, Эд Хелмс, Кайл МакЛоклен, Прюитт Тэйлор Винс, Фрэнсис Конрой, Ричард Эдсон, Ария Элперт, Шон Флинн
Описание: Трагический инцидент оборвал жизнь Мистера Роуза, владельца сельскохозяйственной компании по утилизации навоза. Во главе компании встала его дочь Розмари, до этого торговавшая косметикой. Убедившись, что дела плохи, она пригласила на работу хорошего менеджера по продажам из косметического бизнеса — Патрика Фитцпатрика. Он решил сделать из дерьма конфетку в буквальном смысле слова и ввести моду… на дерьмо!
Сэмпл: http://multi-up.com/962491

Тип релиза: HDTV 1080i
Контейнер: MKV
Видео: MPEG4 (H264) 1920x1080 (16:9) 25fps 6 066 Kbps
Аудио: AC3 2.0 ch 48 kHz 16 bit 448 Kbps

MediaInfo

General
Unique ID : 239781053290759824181002235578303489284 (0xB46426AC0F8CE2398D14CBA17659A504)
Complete name : D:\Zapah.uspeha.2009.HDTV.1080i.mkv
Format : Matroska
Format version : Version 4 / Version 2
File size : 4.04 GiB
Duration : 1h 26mn
Overall bit rate : 6 647 Kbps
Movie name : 26.03.2014 SharkN73
Encoded date : UTC 2014-03-26 18:32:14
Writing application : mkvmerge v6.8.0 ('Theme for Great Cities') 64bit built on Mar 2 2014 21:34:26
Writing library : libebml v1.3.0 + libmatroska v1.4.1
Video
ID : 1
Format : AVC
Format/Info : Advanced Video Codec
Format profile : High@L4.0
Format settings, CABAC : Yes
Format settings, ReFrames : 3 frames
Codec ID : V_MPEG4/ISO/AVC
Duration : 1h 26mn
Bit rate : 6 066 Kbps
Width : 1 920 pixels
Height : 1 080 pixels
Display aspect ratio : 16:9
Frame rate mode : Constant
Frame rate : 25.000 fps
Standard : Component
Color space : YUV
Chroma subsampling : 4:2:0
Bit depth : 8 bits
Scan type : Interlaced
Scan order : Top Field First
Bits/(Pixel*Frame) : 0.117
Stream size : 3.68 GiB (91%)
Language : English
Default : Yes
Forced : No
Color primaries : BT.709
Transfer characteristics : BT.709
Matrix coefficients : BT.709
Audio
ID : 2
Format : AC-3
Format/Info : Audio Coding 3
Mode extension : CM (complete main)
Format settings, Endianness : Big
Codec ID : A_AC3
Duration : 1h 26mn
Bit rate mode : Constant
Bit rate : 448 Kbps
Channel(s) : 6 channels
Channel(s)_Original : 2 channels
Channel positions : Front: L R
Sampling rate : 48.0 KHz
Bit depth : 16 bits
Compression mode : Lossy
Delay relative to video : 1ms
Stream size : 279 MiB (7%)
Language : Russian
Default : Yes
Forced : No

Скриншоты



Показать сообщения:    

Текущее время: 14-Дек 00:45

Часовой пояс: UTC ± 0


Вы не можете начинать темы
Вы не можете отвечать на сообщения
Вы не можете редактировать свои сообщения
Вы не можете удалять свои сообщения
Вы не можете голосовать в опросах
Вы не можете прикреплять файлы к сообщениям
Вы не можете скачивать файлы

!ВНИМАНИЕ!
Сайт не предоставляет электронные версии произведений, а занимается лишь коллекционированием и каталогизацией ссылок, присылаемых и публикуемых на форуме нашими читателями. Если вы являетесь правообладателем какого-либо представленного материала и не желаете, чтобы ссылка на него находилась в нашем каталоге, свяжитесь с нами, и мы незамедлительно удалим ее. Файлы для обмена на трекере предоставлены пользователями сайта, и администрация не несет ответственности за их содержание. Просьба не заливать файлы, защищенные авторскими правами, а также файлы нелегального содержания!