Важное объявление!
У Нас Все раздачи мультитрекерные, при нуле пиров в релизах, можете смело вставать на закачку!
 
Автор Сообщение

димитри37

Стаж:
4 года
Сообщений:
1236

Репутация: 127

[+] [-]
Вне форума [Профиль] [ЛС]

Запасной игрок
Жанр: комедия
Год выпуска: 1954
Продолжительность: 01:18:07
Режиссёр: Семен Тимошенко
В ролях:
Георгий Вицин - Вася Веснушкин
Павел Кадочников - Светланов
Татьяна Конюхова - Валя Олешко
Всеволод Кузнецов - Саша Веснушкин
Гликерия Богданова-Чеснокова - болельщица
Сергей Филиппов - ревнивый муж
Валентина Ушакова - Галина Карташева
Марк Бернес - Лев Павлович Коломягин, тренер
Константин Адашевский - Иван Иннокентьевич
Мария Миронова - Ольга, жена директора
Елена Тяпкина - мать Веснушкиных
Борис Коковкин - Бабушкин
Владимир Белокуров - режиссёр Цветков
Павел Поль — композитор Днепровский
Описание: Заводская команда «Синие Стрелы» выходит в финал, и отправляется на теплоходе в Сухуми для встречи с «Вымпелом», считающимся фаворитом. Но, прежде чем матч состоится, героям фильма предстоит пережить множество приключений.

Качество видео: DVDRip-AVC
Формат видео: MKV
Видео: x264 (High@L4.1); Анаморф 700@746x544; Display aspect ratio: 1.371:1, 25.000 fps, 2472 Kbps
Аудио: Оригинал: AC-3; 16 bit 48 Khz; 2.0ch 192 Kbps; CBR.

MediaInfo

General
Unique ID : 229549089660283755490092364763835306457 (0xACB18BEA97D763668E4CBB9ABC7291D9)
Complete name : Запасной игрок.1954.mkv
Format : Matroska
Format version : Version 2
File size : 1.45 GiB
Duration : 1h 18mn
Overall bit rate : 2 666 Kbps
Movie name : «Запасной игрок»
Encoded date : UTC 2013-01-26 14:33:09
Writing application : mkvmerge v5.8.0 ('No Sleep / Pillow') built on Sep 2 2012 15:37:04
Writing library : libebml v1.2.3 + libmatroska v1.3.0
Comment : DVDRip-AVC
Original date released : January 26th 2013
Encoded by : imgeorgest®
Video
ID : 1
Format : AVC
Format/Info : Advanced Video Codec
Format profile : High@L4.1
Format settings, CABAC : Yes
Format settings, ReFrames : 15 frames
Codec ID : V_MPEG4/ISO/AVC
Duration : 1h 18mn
Bit rate : 2 472 Kbps
Width : 700 pixels
Height : 544 pixels
Display aspect ratio : 1.371
Original display aspect ratio : 1.373
Frame rate : 25.000 fps
Color space : YUV
Chroma subsampling : 4:2:0
Bit depth : 8 bits
Scan type : Progressive
Bits/(Pixel*Frame) : 0.260
Stream size : 1.32 GiB (91%)
Title : Запасной игрок.1954
Writing library : x264 core 125 r2200 999b753
Encoding settings : cabac=1 / ref=15 / deblock=1:-1:-1 / analyse=0x3:0x133 / me=umh / subme=11 / psy=1 / psy_rd=1.00:0.15 / mixed_ref=1 / me_range=48 / chroma_me=1 / trellis=2 / 8x8dct=1 / cqm=0 / deadzone=21,11 / fast_pskip=0 / chroma_qp_offset=-3 / threads=12 / lookahead_threads=2 / sliced_threads=0 / nr=0 / decimate=0 / interlaced=0 / bluray_compat=0 / constrained_intra=0 / bframes=8 / b_pyramid=2 / b_adapt=2 / b_bias=0 / direct=3 / weightb=1 / open_gop=0 / weightp=2 / keyint=250 / keyint_min=25 / scenecut=40 / intra_refresh=0 / rc_lookahead=40 / rc=2pass / mbtree=0 / bitrate=2472 / ratetol=1.0 / qcomp=0.60 / qpmin=0 / qpmax=69 / qpstep=4 / cplxblur=20.0 / qblur=0.5 / vbv_maxrate=50000 / vbv_bufsize=62500 / nal_hrd=none / ip_ratio=1.40 / pb_ratio=1.30 / aq=1:1.00
Language : Russian
Default : Yes
Forced : No
Color primaries : BT.470-6 System B, BT.470-6 System G, BT.601-6 625, BT.1358 625, BT.1700 625 PAL, BT.1700 625 SECAM
Transfer characteristics : BT.470-6 System B, BT.470-6 System G
Matrix coefficients : BT.470-6 System B, BT.470-6 System G, BT.601-6 625, BT.1358 625, BT.1700 625 PAL, BT.1700 625 SECAM, IEC 61966-2-4 601
Audio
ID : 2
Format : AC-3
Format/Info : Audio Coding 3
Mode extension : CM (complete main)
Codec ID : A_AC3
Duration : 1h 18mn
Bit rate mode : Constant
Bit rate : 192 Kbps
Channel(s) : 2 channels
Channel positions : Front: L R
Sampling rate : 48.0 KHz
Bit depth : 16 bits
Compression mode : Lossy
Stream size : 107 MiB (7%)
Title : Оригинал: AC-3; 16 bit 48 Khz; 2.0ch 192 Kbps; CBR.
Language : Russian
Default : Yes
Forced : No

x264 log

...last pass...
x264.exe: --pass 2 --bitrate 2472 --preset medium --ref 15 --deblock -1:-1 --merange 48 --bframes 8 --direct auto --b-adapt 2 --trellis 2 --no-fast-pskip --no-dct-decimate --psy-rd 1.00:0.15 --vbv-maxrate 50000 --vbv-bufsize 62500 --partitions all --subme 11 --me umh --no-mbtree --colorprim bt470bg --transfer bt470bg --colormatrix bt470bg --sar 16:15 --stats "K:\Запасной игрок.1954.log" --output "K:\Запасной игрок.1954.mkv" "L:\Temp\1077.avs"
avs [info]: 700x544p 16:15 @ 25/1 fps (cfr)
x264 [info]: using SAR=16/15
x264 [info]: using cpu capabilities: MMX2 SSE2Fast SSSE3 FastShuffle SSE4.2
x264 [info]: profile High, level 4.1
x264 [info]: frame I:605 Avg QP:20.80 size: 39952
x264 [info]: frame P:27748 Avg QP:22.32 size: 21144
x264 [info]: frame B:88832 Avg QP:23.33 size: 9430
x264 [info]: consecutive B-frames: 1.0% 1.2% 12.1% 39.3% 30.5% 14.5% 1.2% 0.2% 0.0%
x264 [info]: mb I I16..4: 1.9% 85.2% 12.8%
x264 [info]: mb P I16..4: 0.4% 20.9% 1.9% P16..4: 31.4% 34.4% 8.7% 1.9% 0.1% skip: 0.3%
x264 [info]: mb B I16..4: 0.1% 2.9% 0.2% B16..8: 34.1% 23.0% 3.7% direct:12.0% skip:23.9% L0:33.8% L1:41.7% BI:24.5%
x264 [info]: 8x8 transform intra:89.8% inter:62.3%
x264 [info]: direct mvs spatial:99.0% temporal:1.0%
x264 [info]: coded y,uvDC,uvAC intra: 95.9% 75.5% 31.1% inter: 44.0% 26.9% 4.5%
x264 [info]: i16 v,h,dc,p: 15% 17% 2% 66%
x264 [info]: i8 v,h,dc,ddl,ddr,vr,hd,vl,hu: 13% 9% 5% 8% 12% 16% 11% 14% 13%
x264 [info]: i4 v,h,dc,ddl,ddr,vr,hd,vl,hu: 17% 6% 2% 7% 13% 19% 11% 14% 10%
x264 [info]: i8c dc,h,v,p: 30% 28% 21% 21%
x264 [info]: Weighted P-Frames: Y:30.0% UV:11.5%
x264 [info]: ref P L0: 43.7% 13.1% 16.0% 6.3% 4.3% 3.3% 2.9% 1.6% 1.5% 1.3% 1.3% 1.1% 1.1% 1.0% 1.1% 0.4%
x264 [info]: ref B L0: 88.3% 7.1% 1.5% 0.8% 0.5% 0.4% 0.3% 0.2% 0.2% 0.2% 0.2% 0.1% 0.1% 0.1%
x264 [info]: ref B L1: 97.8% 2.2%
x264 [info]: kb/s:2472.29
x264 [total]: encoded 117185 frames, 9.16 fps, 2472.30 kb/s

Скриншоты

Исходник

Сравнение с исходником:

http://screenshotcomparison.com/comparison/4513
-
Показать сообщения:    

Текущее время: Сегодня 01:12

Часовой пояс: GMT



Вы не можете начинать темы
Вы не можете отвечать на сообщения
Вы не можете редактировать свои сообщения
Вы не можете удалять свои сообщения
Вы не можете голосовать в опросах
Вы не можете прикреплять файлы к сообщениям
Вы не можете скачивать файлы
Наши партнеры: интернет магазин Ивановского трикотажа textilla.ru