Важное объявление!
У Нас Все раздачи мультитрекерные, при нуле пиров в релизах, можете смело вставать на закачку!
Статистика раздачи
Размер:     |    Зарегистрирован:     |    Скачан:     |   
Нет
 
     
 
 
Автор Сообщение

HUNTER

Стаж:
5 лет 1 месяц
Сообщений:
68439

Репутация: 101

[+] [-]
Вне форума [Профиль] [ЛС]

Замёрзший / Ледышка / Out Cold«A chilling, hilarious comedy»
Страна: США
Студия: MGM
Жанр: комедия, драма, триллер
Год выпуска: 1989
Продолжительность: 01:28:11
-
Перевод: Профессиональный (двухголосый закадровый) НТВ+ | Наталья Казначеева, Игорь Тарадайкин
Cубтитры: нет
Оригинальная аудиодорожка: английский
-
Режиссер: Малкольм Маубрэй / Malcolm Mowbray
В ролях: Джон Литгоу, Тери Гарр, Рэнди Куэйд, Брюс МакГилл, Лаура Алкальде, Мэдисон Арнольд, Кармен Альварез Блок, Лиза Блаунт, Алан Блюменфилд, Томас Бёрд
-
Описание: Когда Санни узнает, что муж ее обманывает, она запирает его на ночь в морозильник в мясном магазине. К утру муж ее превращается в сосульку. Чтобы избавиться от тела, Санни вступает в сговор с партнером мужа по имени Дэйв, но тут ей на хвост садится детектив и вывоз мороженого трупа становится делом рискованным.
[img]https://rating.kinopoisk.ru/2621.gif[/img]
>>> Собственная запись со спутника Eutelsat 36A/36B (36°E) | MGM HD (эфир 20.09.2016г.)
Тип релиза: HDTV 1080i
Контейнер: MKV
Видео: MPEG-4 AVC / PAL 16:9 / 1920x1080 (1,85:1) / 5840 kbps / 25,000 fps / 0.056 bit/pixel / High@L4
Аудио 1: Russian / MPEG-2 Audio / 2.0 Ch / 48 kHz / 192 kbps / 16 bit | НТВ+ | Наталья Казначеева, Игорь Тарадайкин
Аудио 2: English / MPEG-2 Audio / 2.0 Ch / 48 kHz / 192 kbps / 16 bit | Original
Навигация по главам: есть

MediaInfo

Код:
Общее
Уникальный идентификатор                 : 201973060485437587295123582495736363258 (0x97F298B53261F8FA93D07BDBC0EE78FA)
Полное имя                               : N:\HDTV\Out Cold 1989 HDTV 1080i DD2.0 MPEG4\Out Cold.1989.HDTV.1080i.mkv
Формат                                   : Matroska
Версия формата                           : Version 4 / Version 2
Размер файла                             : 3,84 Гбайт
Продолжительность                        : 1 ч. 28 м.
Общий поток                              : 6231 Кбит/сек
Название фильма                          : Release for RuTracker © flaSI-I
Дата кодирования                         : UTC 2016-09-28 16:41:44
Программа кодирования                    : mkvmerge v9.4.2 ('So High') 64bit
Библиотека кодирования                   : libebml v1.3.4 + libmatroska v1.4.5
Видео
Идентификатор                            : 1
Формат                                   : AVC
Формат/Информация                        : Advanced Video Codec
Профиль формата                          : High@L4
Параметр CABAC формата                   : Да
Параметр ReFrames формата                : 4 кадра
Идентификатор кодека                     : V_MPEG4/ISO/AVC
Продолжительность                        : 1 ч. 28 м.
Битрейт                                  : 5840 Кбит/сек
Ширина                                   : 1920 пикселей
Высота                                   : 1080 пикселей
Соотношение сторон                       : 16:9
Режим частоты кадров                     : Переменный
Частота кадров                           : 50,000 кадров/сек
Частота кадров в оригинале               : 25,000 кадров/сек
Цветовое пространство                    : YUV
Субдискретизация насыщенности            : 4:2:0
Битовая глубина                          : 8 бит
Тип развёртки                            : Чересстрочная
Метод сохранения типа развёртки          : Раздельные поля
Порядок развёртки                        : Верхнее поле первое
Бит/(Пиксели*Кадры)                      : 0.056
Размер потока                            : 3,60 Гбайт (94%)
Язык                                     : English
Default                                  : Да
Forced                                   : Нет
Цветовой диапазон                        : Limited
Основные цвета                           : BT.709
Характеристики трансфера                 : BT.709
Коэффициенты матрицы                     : BT.709
Аудио #1
Идентификатор                            : 2
Формат                                   : MPEG Audio
Версия формата                           : Version 1
Профиль формата                          : Layer 2
Идентификатор кодека                     : A_MPEG/L2
Идентификатор кодека/Подсказка           : MP2
Продолжительность                        : 1 ч. 28 м.
Вид битрейта                             : Постоянный
Битрейт                                  : 192 Кбит/сек
Каналы                                   : 2 канала
Частота                                  : 48,0 КГц
Частота кадров                           : 41,667 кадра/сек (1152 spf)
Метод сжатия                             : С потерями
Размер потока                            : 121 Мбайт (3%)
Заголовок                                : DVO | НТВ+
Язык                                     : Russian
Default                                  : Да
Forced                                   : Нет
Аудио #2
Идентификатор                            : 3
Формат                                   : MPEG Audio
Версия формата                           : Version 1
Профиль формата                          : Layer 2
Идентификатор кодека                     : A_MPEG/L2
Идентификатор кодека/Подсказка           : MP2
Продолжительность                        : 1 ч. 28 м.
Вид битрейта                             : Постоянный
Битрейт                                  : 192 Кбит/сек
Каналы                                   : 2 канала
Частота                                  : 48,0 КГц
Частота кадров                           : 41,667 кадра/сек (1152 spf)
Метод сжатия                             : С потерями
Размер потока                            : 121 Мбайт (3%)
Заголовок                                : Original
Язык                                     : English
Default                                  : Нет
Forced                                   : Нет
Меню
00:00:00.000                             : en:CHAPTER 01
00:06:18.334                             : en:CHAPTER 02
00:12:31.001                             : en:CHAPTER 03
00:14:00.969                             : en:CHAPTER 04
00:19:18.203                             : en:CHAPTER 05
00:23:21.837                             : en:CHAPTER 06
00:26:05.204                             : en:CHAPTER 07
00:33:06.337                             : en:CHAPTER 08
00:37:23.837                             : en:CHAPTER 09
00:39:35.837                             : en:CHAPTER 10
00:47:28.838                             : en:CHAPTER 11
00:55:12.206                             : en:CHAPTER 12
00:59:27.773                             : en:CHAPTER 13
01:03:48.741                             : en:CHAPTER 14
01:08:15.741                             : en:CHAPTER 15
01:13:01.475                             : en:CHAPTER 16
01:17:21.242                             : en:CHAPTER 17
01:22:21.476                             : en:CHAPTER 18

Скриншоты

-


_________________
Показать сообщения:    

Текущее время: Сегодня 05:52

Часовой пояс: GMT



Вы не можете начинать темы
Вы не можете отвечать на сообщения
Вы не можете редактировать свои сообщения
Вы не можете удалять свои сообщения
Вы не можете голосовать в опросах
Вы не можете прикреплять файлы к сообщениям
Вы не можете скачивать файлы