Важное объявление!
У Нас Все раздачи мультитрекерные, при нуле пиров в релизах, можете смело вставать на закачку!
Статистика раздачи
Размер:     |    Зарегистрирован:     |    Скачан:     |   
Нет
 
     
 
 
Автор Сообщение

HUNTER

Стаж:
5 лет
Сообщений:
67958

Репутация: 101

[+] [-]
Вне форума [Профиль] [ЛС]

Замороженный / Hibernatus
Страна: Франция, Италия
Студия: Gaumont International, Rizzoli Film
Жанр: Комедия
Год выпуска: 1969
Продолжительность: 01:21:52
Перевод #1: Профессиональный (дублированный)
Перевод #2: Профессиональный (многоголосый закадровый) Cinema Prestige
Перевод #3: Профессиональный (многоголосый закадровый) Светла
Перевод #4: Профессиональный (многоголосый закадровый) RMG
Перевод #5: Профессиональный (многоголосый закадровый) Петербург 5 канал
Cубтитры: русские
Оригинальная аудиодорожка: французский
Сэмпл: http://multi-up.com/999807
Режиссер: Эдуар Молинаро / Edouard Molinaro
В ролях: Луи де Фюнес, Клод Женсак, Бернар Алан, Оливье де Фюнес, Поль Пребуа, Клод Пьеплю, Жак Легра, Анник Алан, Мартина Келли, Эллит Демей, Паскаль Маззотти, Ив Венсан, Микаэль Лонсдаль
Описание: Юбер де Тартас, богатый промышленник, живет счастливо со своей женой Эдме и сыном. Но внезапно странное событие потрясает их жизнь: на полюсе найден замороженный дедушка его жены, пролежавший в ледяной глыбе 65 лет. Его выводят из состояния зимней спячки, а чтобы не травмировать дедушкину психику, пытаются инсценировать вокруг него жизнь начала XX века. Но в их планы вмешиваются непредвиденные обстоятельства… Экранизация по произведению: Жан Бернар-Люк.
Тип релиза: BDRip 1080p
Контейнер: MKV
Видео: MPEG-4 AVC, NTSC, 1920x816, 2.35:1, 8774 kbps, 24 fps
Аудио #1: Русский, дублированный, AC3, 2 ch, 48 кГц, 192 Кбит/с
Аудио #2: Русский, многоголосый, AC3, 2 ch, 48 кГц, 192 Кбит/с
Аудио #3: Русский, многоголосый, AC3, 2 ch, 48 кГц, 192 Кбит/с
Аудио #4: Русский, многоголосый, AC3, 2 ch, 48 кГц, 192 Кбит/с
Аудио #5: Русский, многоголосый, AC3, 2 ch, 48 кГц, 192 Кбит/с
Аудио #6: Французский / French, DTS, 2 ch, 48 кГц, 768 Кбит/с
Формат субтитров: Softsub (SRT)

MediaInfo

General
Unique ID : 175677645737551964108017704738054238058 (0x842A48AA4C460666847D86A52E406F6A)
Format : Matroska
File size : 6.01 GiB
Duration : 1h 21mn
Overall bit rate : 10.5 Mbps
Movie name : Hibernatus
Encoded date : UTC 2014-09-13 18:54:02
Writing application : mkvmerge v7.0.0 ('Where We Going') 64bit built on Jun 9 2014 15:16:27
Writing library : libebml v1.3.0 + libmatroska v1.4.1
Video #1
ID : 1
Format : AVC
Format/Info : Advanced Video Codec
Format profile : High@L4.1
Format settings, CABAC : Yes
Format settings, ReFrames : 5 frames
Codec ID : V_MPEG4/ISO/AVC
Duration : 1h 21mn
Bit rate : 8 774 Kbps
Width : 1 920 pixels
Height : 816 pixels
Display aspect ratio : 2.35:1
Frame rate : 24.000 fps
Color space : YUV
Chroma subsampling : 4:2:0
Bit depth : 8 bits
Scan type : Progressive
Bits/(Pixel*Frame) : 0.233
Stream size : 4.91 GiB (82%)
Title : Hibernatus
Writing library : x264 core 142 r2479 dd79a61
Encoding settings : cabac=1 / ref=5 / deblock=1:0:0 / analyse=0x3:0x113 / me=umh / subme=8 / psy=1 / psy_rd=1.00:0.00 / mixed_ref=1 / me_range=16 / chroma_me=1 / trellis=1 / 8x8dct=1 / cqm=0 / deadzone=21,11 / fast_pskip=0 / chroma_qp_offset=-2 / threads=12 / lookahead_threads=2 / sliced_threads=0 / nr=0 / decimate=1 / interlaced=0 / bluray_compat=0 / constrained_intra=0 / bframes=3 / b_pyramid=2 / b_adapt=1 / b_bias=0 / direct=1 / weightb=1 / open_gop=0 / weightp=2 / keyint=250 / keyint_min=24 / scenecut=40 / intra_refresh=0 / rc_lookahead=40 / rc=2pass / mbtree=1 / bitrate=8774 / ratetol=1.0 / qcomp=0.60 / qpmin=0 / qpmax=69 / qpstep=4 / cplxblur=20.0 / qblur=0.5 / ip_ratio=1.40 / aq=1:1.00
Language : English
Audio #2
ID : 2
Format : AC-3
Format/Info : Audio Coding 3
Format profile : Dolby Digital
Mode extension : CM (complete main)
Codec ID : A_AC3
Duration : 1h 21mn
Bit rate mode : Constant
Bit rate : 192 Kbps
Channel(s) : 2 channels
Channel positions : Front: L R
Sampling rate : 48.0 KHz
Bit depth : 16 bits
Compression mode : Lossy
Delay relative to video : 6s 0ms
Stream size : 113 MiB (2%)
Title : AC3 48kHz 2.0 192 kbps Дубляж
Language : Russian
Audio #3
ID : 3
Format : AC-3
Format/Info : Audio Coding 3
Format profile : Dolby Digital
Mode extension : CM (complete main)
Codec ID : A_AC3
Duration : 1h 21mn
Bit rate mode : Constant
Bit rate : 192 Kbps
Channel(s) : 2 channels
Channel positions : Front: L R
Sampling rate : 48.0 KHz
Bit depth : 16 bits
Compression mode : Lossy
Delay relative to video : 6s 0ms
Stream size : 113 MiB (2%)
Title : AC3 48kHz 2.0 192 kbps MVO Cinema Prestige
Language : Russian
Audio #4
ID : 4
Format : AC-3
Format/Info : Audio Coding 3
Format profile : Dolby Digital
Mode extension : CM (complete main)
Codec ID : A_AC3
Duration : 1h 21mn
Bit rate mode : Constant
Bit rate : 192 Kbps
Channel(s) : 2 channels
Channel positions : Front: L R
Sampling rate : 48.0 KHz
Bit depth : 16 bits
Compression mode : Lossy
Delay relative to video : 6s 0ms
Stream size : 113 MiB (2%)
Title : AC3 48kHz 2.0 192 kbps MVO Svetla
Language : Russian
Audio #5
ID : 5
Format : AC-3
Format/Info : Audio Coding 3
Format profile : Dolby Digital
Mode extension : CM (complete main)
Codec ID : A_AC3
Duration : 1h 21mn
Bit rate mode : Constant
Bit rate : 192 Kbps
Channel(s) : 2 channels
Channel positions : Front: L R
Sampling rate : 48.0 KHz
Bit depth : 16 bits
Compression mode : Lossy
Delay relative to video : 6s 0ms
Stream size : 113 MiB (2%)
Title : AC3 48kHz 2.0 192 kbps MVO RMG
Language : Russian
Audio #6
ID : 6
Format : AC-3
Format/Info : Audio Coding 3
Format profile : Dolby Digital
Mode extension : CM (complete main)
Codec ID : A_AC3
Duration : 1h 21mn
Bit rate mode : Constant
Bit rate : 192 Kbps
Channel(s) : 2 channels
Channel positions : Front: L R
Sampling rate : 48.0 KHz
Bit depth : 16 bits
Compression mode : Lossy
Delay relative to video : 6s 0ms
Stream size : 113 MiB (2%)
Title : AC3 48kHz 2.0 192 kbps MVO Peterburg 5 Channel
Language : Russian
Audio #7
ID : 7
Format : DTS
Format/Info : Digital Theater Systems
Codec ID : A_DTS
Duration : 1h 21mn
Bit rate mode : Constant
Bit rate : 755 Kbps
Channel(s) : 2 channels
Channel positions : Front: L R
Sampling rate : 48.0 KHz
Bit depth : 24 bits
Compression mode : Lossy
Stream size : 442 MiB (7%)
Title : French (DTS 2.0 @ 768 kbps)
Language : French
Text #8
ID : 8
Format : UTF-8
Codec ID : S_TEXT/UTF8
Codec ID/Info : UTF-8 Plain Text
Title : Russian
Language : Russian

Скриншоты


_________________
Показать сообщения:    

Текущее время: Сегодня 00:50

Часовой пояс: GMT



Вы не можете начинать темы
Вы не можете отвечать на сообщения
Вы не можете редактировать свои сообщения
Вы не можете удалять свои сообщения
Вы не можете голосовать в опросах
Вы не можете прикреплять файлы к сообщениям
Вы не можете скачивать файлы