Важное объявление!
У Нас Все раздачи мультитрекерные, при нуле пиров в релизах, можете смело вставать на закачку!
Статистика раздачи
Размер:     |    Зарегистрирован:     |    Скачан:     |   
Нет
 
     
 
 
Автор Сообщение

HUNTER

Стаж:
5 лет 1 месяц
Сообщений:
68426

Репутация: 101

[+] [-]
Вне форума [Профиль] [ЛС]

Замкнутая система / Закрытая система / Uklad zamkniety / The Closed Circuit
Страна: Польша
Жанр: триллер
Год выпуска: 2013
Продолжительность: 01:54:34
Перевод: Субтитры
Cубтитры: английские, русские (StopGenocide!, Naumanns)
Оригинальная аудиодорожка: польский
Режиссер: Рышард Бугайский / Ryszard Bugajski
В ролях: Януш Гайос, Казимеж Качор, Wojciech Zoladkowicz, Роберт Олеч, Пжемыслав Садовски, Магдалена Куморек, Моника Квятковска, Беата Щцыбак, Ярослав Копачевски, Мария Мамона
Описание:
Основанный на реальных событиях, фильм рассказывает историю трех владельцев процветающей компании "Навар" (Марека Ставского (Пшемыслав Садовский), Гжегожа Рыбарчика (Ярослав Копачевский) и Петра Мая (Роберт Олех), чей успех попал в сферу внимания двух старых друзей-чиновников с "партийным прошлым": прокурора Костжевы (Януш Гайос) и начальника налоговой инспекции Каминского (Казимеж Качор).
На банкете по случаю открытия суперсовременного завода "Навара", у двоих властных дружбанов возникают сомнения по поводу честности нажитого бизнесменами добра. И если налоговик Каминский поначалу уважает гостеприимство, и угощается "халявной" водкой, то охотник-прокурор Костжева употребляет только анисовую, причем с мясом, которое сам и добывает метким выстрелом у себя на "фазенде".
Не найдя такого на банкетном столе, Костжева, заручившись поддержкой своего министра, открывает охоту на трех бизнесменов и их капиталы, используя "административный ресурс", СОБР, сообщников в СМИ и своем ведомстве. Помимо материальных соображений, у прокурора еще и личные мотивы: отец одного из бизнесменов 35 лет назад, будучи деканом факультета, отказался "закрыть хвосты" молодому Костжеве, за что его чуть не отчислили из университета.
В результате, жизнь предпринимателей и их семей превращается в сущий ад. "Коррупционной схеме" бросает вызов лишь один честный репортер.
- || -Тип релиза: BDRip 720p (рип от vanray)

Контейнер: MKV
Видео: AVC (x264), 1280x534 (2,40:1) at 25,000 fps, 6800 Кbps, 0.398 bpp
Аудио 1: AC3; 640 Kbps; CBR; 6 ch; 48 khz | Польский |
Формат субтитров: softsub (SRT)

Скриншоты || x264 Info || MediaInfo || Notes

Русские субтитры взяты с этой раздачи, thx: spbdebate

MediaInfo

Код:
Общее
Уникальный идентификатор                 : 210111694913889165158847937390031296214 (0x9E120A5D8E81B583800D29E51A6E56D6)
Полное имя                               : Замкнутая система.2013.RUSSUB.720p.BluRay.x264-vanray.mkv
Формат                                   : Matroska
Версия формата                           : Version 4 / Version 2
Размер файла                             : 5,96 Гбайт
Продолжительность                        : 1 ч. 54 м.
Общий поток                              : 7443 Кбит/сек
Название фильма                          : The Closed Circuit [720p] [2013] RUS SUB
Дата кодирования                         : UTC 2014-02-28 02:16:06
Программа кодирования                    : mkvmerge v6.7.0 ('Back to the Ground') 32bit built on Jan  8 2014 15:03:17
Библиотека кодирования                   : libebml v1.3.0 + libmatroska v1.4.1
Видео
Идентификатор                            : 1
Формат                                   : AVC
Формат/Информация                        : Advanced Video Codec
Профиль формата                          : High@L4.1
Параметр CABAC формата                   : Да
Параметр ReFrames формата                : 12 кадров
Идентификатор кодека                     : V_MPEG4/ISO/AVC
Продолжительность                        : 1 ч. 54 м.
Битрейт                                  : 6800 Кбит/сек
Ширина                                   : 1280 пикселей
Высота                                   : 534 пикселя
Соотношение сторон                       : 2,40:1
Режим частоты кадров                     : Постоянный
Частота кадров                           : 25,000 кадров/сек
Цветовое пространство                    : YUV
Субдискретизация насыщенности            : 4:2:0
Битовая глубина                          : 8 бит
Тип развёртки                            : Прогрессивная
Бит/(Пиксели*Кадры)                      : 0.398
Размер потока                            : 5,33 Гбайт (89%)
Заголовок                                : profile.php?mode=viewprofile&u=22488948
Библиотека кодирования                   : x264 core 133 r2334 a3ac64b
Настройки программы                      : cabac=1 / ref=12 / deblock=1:-3:-3 / analyse=0x3:0x113 / me=umh / subme=10 / psy=1 / psy_rd=1.22:0.00 / mixed_ref=1 / me_range=24 / chroma_me=1 / trellis=2 / 8x8dct=1 / cqm=0 / deadzone=21,11 / fast_pskip=0 / chroma_qp_offset=-2 / threads=3 / lookahead_threads=1 / sliced_threads=0 / nr=0 / decimate=1 / interlaced=0 / bluray_compat=0 / constrained_intra=0 / bframes=6 / b_pyramid=2 / b_adapt=2 / b_bias=0 / direct=3 / weightb=1 / open_gop=0 / weightp=2 / keyint=21 / keyint_min=2 / scenecut=40 / intra_refresh=0 / rc_lookahead=21 / rc=2pass / mbtree=1 / bitrate=6800 / ratetol=1.0 / qcomp=0.50 / qpmin=10 / qpmax=51 / qpstep=4 / cplxblur=20.0 / qblur=0.5 / ip_ratio=1.10 / aq=1:1.00
Язык                                     : English
Default                                  : Да
Forced                                   : Нет
Аудио
Идентификатор                            : 2
Формат                                   : AC-3
Формат/Информация                        : Audio Coding 3
Расширение режима                        : CM (complete main)
Параметр Endianness формата              : Big
Идентификатор кодека                     : A_AC3
Продолжительность                        : 1 ч. 54 м.
Вид битрейта                             : Постоянный
Битрейт                                  : 640 Кбит/сек
Каналы                                   : 6 каналов
Расположение каналов                     : Front: L C R, Side: L R, LFE
Частота                                  : 48,0 КГц
Битовая глубина                          : 16 бит
Метод сжатия                             : С потерями
Размер потока                            : 525 Мбайт (9%)
Язык                                     : Polish
Default                                  : Да
Forced                                   : Нет
Текст #1
Идентификатор                            : 3
Формат                                   : UTF-8
Идентификатор кодека                     : S_TEXT/UTF8
Идентификатор кодека/Информация          : UTF-8 Plain Text
Заголовок                                : [Naumanns] [ArtGroup STOP!Genocide]
Язык                                     : Russian
Default                                  : Да
Forced                                   : Нет
Текст #2
Идентификатор                            : 4
Формат                                   : UTF-8
Идентификатор кодека                     : S_TEXT/UTF8
Идентификатор кодека/Информация          : UTF-8 Plain Text
Язык                                     : English
Default                                  : Нет
Forced                                   : Нет
Меню
00:00:00.000                             : en:
00:11:08.079                             : en:
00:15:24.800                             : en:
00:18:58.000                             : en:
00:25:18.400                             : en:
00:36:39.719                             : en:
00:43:05.239                             : en:
00:50:21.960                             : en:
00:57:02.000                             : en:
01:05:38.720                             : en:
01:11:52.640                             : en:
01:21:16.920                             : en:
01:26:44.920                             : en:
01:34:18.400                             : en:
01:42:10.280                             : en:
01:50:45.720                             : en:

_________________
Показать сообщения:    

Текущее время: Сегодня 22:20

Часовой пояс: GMT



Вы не можете начинать темы
Вы не можете отвечать на сообщения
Вы не можете редактировать свои сообщения
Вы не можете удалять свои сообщения
Вы не можете голосовать в опросах
Вы не можете прикреплять файлы к сообщениям
Вы не можете скачивать файлы