Важное объявление!
У Нас Все раздачи мультитрекерные, при нуле пиров в релизах, можете смело вставать на закачку!
 
Автор Сообщение

HUNTER

Стаж:
4 года 10 месяцев
Сообщений:
65561

Репутация: 101

[+] [-]
Вне форума [Профиль] [ЛС]

Замечательные умы - профессор Ричард Докинз
BBC Beautiful Minds - Professor Richard Dawkins

Русская озвучка, оригинальная дорожка, русские субтитры
_____________________________________________________________________________
Год выпуска:2012
Страна: Великобритания
Жанр: Документальный, научно-популярный, биография
Продолжительность: 00:59:03
Перевод: Профессиональный (одноголосый закадровый)
Текст читает: Rumble
Язык: Русский
Субтитры: Русские, отдельным файлом *.srt
_____________________________________________________________________________
Описание: "Замечательные Умы" - документальный сериал BBC, в котором ведущие британские ученые описывают кульминационный момент их открытия.
Профессор Ричард Докинз рассказывает о том, что привело его в 1978 году к написанию взрывоопасной книги "Эгоистичный Ген", которая разделила научное сообщество и сделала его одним из наиболее влиятельных биологов своего поколения и известным адептом атеизма.
_____________________________________________________________________________
Качество: WebRip
Формат: AVI
Видео кодек: XviD
Аудио кодек: AC3
Видео: XviD MPEG-4 1400 kbps avh, 640Х380 @ 25.000 fps
Аудио 1: Русская озвучка - AC3, 192 Kbps, 48.000 Hz, 2 channels
Аудио 2: Русская озвучка - MP3, 192 Kbps, 48.000 Hz, 2 channels
SAMPLE
_____________________________________________________________________________

MediaInfo

General
Complete name : S:\VIDEO\Science\Ричард Докинз - Замечательные умы\Ричард Докинз - Замечательные умы\Ричард Докинз — Замечательные умы RusEng.avi
Format : AVI
Format/Info : Audio Video Interleave
File size : 768 MiB
Duration : 59mn 8s
Overall bit rate : 1 816 Kbps
Writing application : VirtualDubMod 1.5.10.2 (build 2540/release)
Writing library : VirtualDubMod build 2540/release
TCOD : 0
TCDO : 35484400000
Video
ID : 0
Format : MPEG-4 Visual
Format profile : Advanced Simple@L5
Format settings, BVOP : Yes
Format settings, QPel : No
Format settings, GMC : No warppoints
Format settings, Matrix : Default (H.263)
Muxing mode : Packed bitstream
Codec ID : XVID
Codec ID/Hint : XviD
Duration : 59mn 8s
Bit rate : 1 418 Kbps
Width : 640 pixels
Height : 380 pixels
Display aspect ratio : 1.684
Frame rate : 25.000 fps
Color space : YUV
Chroma subsampling : 4:2:0
Bit depth : 8 bits
Scan type : Progressive
Compression mode : Lossy
Bits/(Pixel*Frame) : 0.233
Stream size : 600 MiB (78%)
Writing library : XviD 64
Audio #1
ID : 1
Format : AC-3
Format/Info : Audio Coding 3
Mode extension : CM (complete main)
Codec ID : 2000
Duration : 59mn 8s
Bit rate mode : Constant
Bit rate : 192 Kbps
Channel(s) : 2 channels
Channel positions : Front: L R
Sampling rate : 48.0 KHz
Bit depth : 16 bits
Compression mode : Lossy
Stream size : 81.2 MiB (11%)
Alignment : Aligned on interleaves
Interleave, duration : 40 ms (1.00 video frame)
Interleave, preload duration : 512 ms
Audio #2
ID : 2
Format : MPEG Audio
Format version : Version 1
Format profile : Layer 3
Codec ID : 55
Codec ID/Hint : MP3
Duration : 59mn 8s
Bit rate mode : Constant
Bit rate : 192 Kbps
Channel(s) : 2 channels
Sampling rate : 48.0 KHz
Compression mode : Lossy
Stream size : 81.2 MiB (11%)
Alignment : Aligned on interleaves
Interleave, duration : 40 ms (1.00 video frame)
Interleave, preload duration : 504 ms

Скриншоты

Все озвучки студии RUMBLE на трекере

Стендап комедия

Ардал О'Хенлон
2007 - Ардал О'Хенлон: Концерт в Дублине
Билл Мар
2000 - Билл Мар: Будьте циничнее
2003 - Билл Мар: Победа начинается в тылу
2005 - Билл Мар: Я швейцарец
2007 - Билл Мар: Разводящий
2012 - Билл Мар: Безумно тупая политика
Билл Хикс
1991 - Билл Хикс: Одно вечернее шоу
1993 - Билл Хикс: Откровения
Билли Коннолли
2005 - Билли Коннолли: Концерт в Нью-Йорке
Даг Стенхоуп
2002 - Даг Стенхоуп: Из уст в уста
2004 - Даг Стенхоуп: Никчёмный герой
2007 - Даг Стенхоуп: Без возмещений
2011 - Даг Стенхоуп: Осло - сжигая мост в никуда
2012 - Даг Стенхоуп: Прежде чем наставить пистолет на себя
2013 - Даг Стенхоуп: Пивной путч
Демитри Мартин
2004 - Демитри Мартин: Если я
2012 - Демитри Мартин: Стендап комик
Джим Керри
1991 - Джим Керри: Противоестественное действо
Джимми Карр
2004 - Джимми Карр: Вживую
2005 - Джимми Карр: Стенд Ап
2007 - Джимми Карр: Комик
2009 - Джимми Карр: Рассказывает шутки
2008 - Джимми Карр: На концерте
2010 - Джимми Карр: Смешить людей
2011 - Джимми Карр: Шутя
2013 - Джимми Карр: Смеясь и шутя
Джо Роган
2006 - Джо Роган: Live
2009 - Джо Роган: Говорящие обезьяны в космосе
2012 - Джо Роган: Выступление в театре Tabernacle
Джордж Карлин
1977 - Джордж Карлин: Вживую в УЮК
1982 - Джордж Карлин: в Карнеги
1984 - Джордж Карлин: Карлин в Кампусе
1986 - Джордж Карлин: Игры с твоим разумом
1988 - Джордж Карлин: Что я делаю в Нью-Джерси?
1990 - Джордж Карлин: Снова за старое
1992 - Джордж Карлин: Зависая в Нью-Йорке
1996 - Джордж Карлин: Снова в городе
1997 - Джордж Карлин: 40 лет на сцене
1999 - Джордж Карлин: Вы все больны
2001 - Джордж Карлин: Жалобы и недовольства
2004 - Джордж Карлин в актёрской студии
2005 - Джордж Карлин: Жизнь стоит того, чтобы её потерять
2008 - Джордж Карлин: Это плохо для тебя
Дилан Моран
2004 - Дилан Моран: Монстр
2006 - Дилан Моран: Типа, обо всем
2009 - Дилан Моран: Что же это
2011 - Дилан Моран: Да, да
Дэйв Шапелл
2004 - Дэйв Шапелл: Если уж на то пошло
Луи Си Кей
2013 - Луи Си Кей: О боже мой
Митч Хедберг
1999 - Митч Хедберг: Спешал (Полная версия)
Патрис О'Нил
2004 - Патрис О'Нил: В голливудском комедийном клубе
Ричард Прайор
1982 - Ричард Прайор: Живое шоу в Сансет Стрип
Ричард Херринг
2007 - Ричард Херринг: Кто-то любит йогурт
2008 - Ричард Херринг: Сын директора
2011 - Ричард Херринг: Христос на велике
Рой Чабби Браун
2010 - Рой Чабби Браун: Вагина с тефтелями
Саймон Амстелл
2010 - Саймон Амстелл - Ничего не делай
Энди Кауфман
1977 - Энди Кауфман - Live
ПОЯВЛЕНИЕ НОВЫХ ОЗВУЧЕК
ЗАВИСИТ ТОЛЬКО ОТ ТЕБЯ!


_____________________________________________________________________________

_________________
Показать сообщения:    

Текущее время: Сегодня 13:37

Часовой пояс: GMT



Вы не можете начинать темы
Вы не можете отвечать на сообщения
Вы не можете редактировать свои сообщения
Вы не можете удалять свои сообщения
Вы не можете голосовать в опросах
Вы не можете прикреплять файлы к сообщениям
Вы не можете скачивать файлы