Замбезия / Zambezia (Уэйн Тонли / Wayne Thornley) [2012, мультфильм, комедия, приключения, семейный, BDRip] Dub + Original + subs (Rus, Eng) :: Ивановский Торрент трекер
Важное объявление!
У Нас Все раздачи мультитрекерные, при нуле пиров в релизах, можете смело вставать на закачку!
Статистика раздачи
Размер:     |    Зарегистрирован:     |    Скачан:     |   
Нет
 
     
 
 
Автор Сообщение

HUNTER

Стаж:
4 года 11 месяцев
Сообщений:
66054

Репутация: 101

[+] [-]
Вне форума [Профиль] [ЛС]

Замбезия / Zambezia-
Год выпуска: 2012
Выпущено: ЮАР
Жанр: мультфильм, комедия, приключения, семейный
Продолжительность: 01:22:28
Перевод: Профессиональный (полное дублирование) BD RUS
+ Оригинальная звуковая дорожка (отдельно)
Субтитры: Русские, Английские (полные, SDH) (внешние srt*)-Режиссер: Уэйн Тонли / Wayne Thornley
В ролях: Леонард Нимой, Джереми Суарес, Эбигейл Бреслин, Джефф Голдблюм, Сэмюэл Л. Джексон, Дженифер Льюис, Джим Каммингс, Ямал Миксон, Ричард Э. Грант, Дэвид Шонесси
О фильме: В мультфильме рассказывается история жизни юного соколёнка по имени Кай, его приключения, характер, комичные ситуации в которые он попадает на пути к своей главной цели, на пути к заветному птичьему городку Замбезия, в котором он от всей души желает отыскать новых друзей, которые бы скрасили его одиночество и не оставили в беде. Однако для начала ему необходимо преодолеть путь, который полон опасностей и неожиданных поворотов.
Релиз:
Автор: sociolog_melvas
Качество: BDRip (источник: DFCbit / BDRemux / 1080p)
Формат: AVI
Видео: 704x400 (1.76:1), 23.976 fps, XviD build 65 ~2064 kbps avg, 0.30 bit/pixel
Аудио #1: 48 kHz, AC3 Dolby Digital, 3/2 (L,C,R,l,r) + LFE ch, ~448.00 kbps avg rus
Аудио #2: 48 kHz, AC3 Dolby Digital, 3/2 (L,C,R,l,r) + LFE ch, ~448.00 kbps avg eng (отдельно)
Размер: 1487.66 Mb (1/3 DVD-R)
Скачать: Семпл-

Кадры из фильма


-

Mi


Формат : AVI
Формат/Информация : Audio Video Interleave
Размер файла : 1,45 Гбайт
Продолжительность : 1 ч. 22 м.
Общий поток : 2522 Кбит/сек
Название фильма : Замбезия / Zambezia (2012) BDRip
Режиссёр : sociolog_melvas
Жанр : мультфильм,комедия,семейный
Программа кодирования : VirtualDubMod 1.5.10.2 (build 2540/release)
Примечание : 04.03.2014
Видео
Идентификатор : 0
Формат : MPEG-4 Visual
Профиль формата : Advanced Simple@L5
Параметр BVOP формата : 1
Параметр QPel формата : Нет
Параметр GMC формата : Без точки перехода
Параметр матрицы формата : Выборочная
Идентификатор кодека : XVID
Идентификатор кодека/Подсказка : XviD
Продолжительность : 1 ч. 22 м.
Битрейт : 2064 Кбит/сек
Ширина : 704 пикселя
Высота : 400 пикселей
Соотношение сторон : 16:9
Частота кадров : 23,976 кадра/сек
Цветовое пространство : YUV
Субдискретизация насыщенности : 4:2:0
Битовая глубина : 8 бит
Тип развёртки : Прогрессивная
Метод сжатия : С потерями
Бит/(Пиксели*Кадры) : 0.306
Размер потока : 1,19 Гбайт (82%)
Библиотека кодирования : XviD 65
Аудио
Идентификатор : 1
Формат : AC-3
Формат/Информация : Audio Coding 3
Расширение режима : CM (complete main)
Параметр Endianness формата : Big
Идентификатор кодека : 2000
Продолжительность : 1 ч. 22 м.
Вид битрейта : Постоянный
Битрейт : 448 Кбит/сек
Каналы : 6 каналов
Расположение каналов : Front: L C R, Side: L R, LFE
Частота : 48,0 КГц
Битовая глубина : 16 бит
Метод сжатия : С потерями
Размер потока : 264 Мбайт (18%)
Выравнивание : Разделение по промежуткам
Продолжительность промежутка : 42 мс. (1,00 видеокадр)
Время предзагрузки промежутка : 500 мс.

-
Цитата:

*** Рип с американского трансфера из личной коллекции DFCbit.
*** Отдельное спасибо xfiles за подготовку русских субтитров.

_________________
Показать сообщения:    

Текущее время: Сегодня 03:54

Часовой пояс: GMT



Вы не можете начинать темы
Вы не можете отвечать на сообщения
Вы не можете редактировать свои сообщения
Вы не можете удалять свои сообщения
Вы не можете голосовать в опросах
Вы не можете прикреплять файлы к сообщениям
Вы не можете скачивать файлы