Важное объявление!
У Нас Все раздачи мультитрекерные, при нуле пиров в релизах, можете смело вставать на закачку!
Статистика раздачи
Размер:     |    Зарегистрирован:     |    Скачан:     |   
Нет
 
     
 
 
Автор Сообщение

HUNTER

Стаж:
5 лет 1 месяц
Сообщений:
68439

Репутация: 101

[+] [-]
Вне форума [Профиль] [ЛС]

| Все релизы мультфильма || BDRip 1080p, 7.46 GB |- P R E S E N T SЗамбезия / Zambezia-
Страна: ЮАР
Жанр: мультфильм, приключения, семейный
Продолжительность: 01:22:29
Год выпуска: 2012
Перевод: Профессиональный (полное дублирование)
Субтитры: есть-Режиссёр: Уэйн Тонли / Wayne Thornley
Роли озвучивали: Эбигейл Бреслин, Кори Бертон, Джим Каммингс, Норин ДеВулф, Ли Дуру, Джефф Голдблюм, Ричард Э. Грант, Таня Гунади, Сэмюэл Л. Джексон, Джереми Суарес, Леонард Нимой...
Роли дублировали: Вероника Саркисова, Даниил Эльдаров, Федор Добронравов, Анна Ардова, Эвелина Блёданс, Гавриил Гордеев, Сергей Чихачев, Пётр Иващенко и др.- | | -Описание: В мультфильме рассказывается история жизни юного соколёнка по имени Кай, его приключения, характер, комичные ситуации в которые он попадает на пути к своей главной цели, на пути к заветному птичьему городку Замбезия, в котором он от всей души желает отыскать новых друзей, которые бы скрасили его одиночество и не оставили в беде. Однако для начала ему необходимо преодолеть путь, который полон опасностей и неожиданных поворотов...-Доп. информация: BDRip 1080p сделан с Blu-Ray диска из моей коллекции (US Transfer).
Отдельное спасибо xfiles за подготовку русских субтитров.
-Сэмпл/Sample (60.5 MB, 1 минута)-Качество: BDRip 1080p
Формат: MKV
Видео: 1920x1080 (1.778:1), 23,976 fps, ~9931 kbps avg, 0.200 bit/pixel
Аудио #1: Русский, DTS / 5.1 / 48 kHz / 1509 kbps / 16 bit - Дубляж | Студия "Централ Продакшн Интернейшенал Групп"
Аудио #2: English, DTS / 5.1 / 48 kHz / 1509 kbps / 16 bit - Original
Субтитры: Русские (полные), English (Full, SDH), French (Full), Spanish (Full)
Навигация по главам: есть (16 не именованных глав)

Сравнение Трансферов

...RUS Transfer... .................. ...US Transfer...


MediaInfo / x264Log

x264Log

raw [info]: 1920x1080p 1:1 @ 24000/1001 fps (cfr)x264 [info]: using SAR=1/1x264 [info]: using cpu capabilities: MMX2 SSE2Fast SSSE3 SSE4.2 AVX XOP FMA4 FMA3 LZCNT BMI1x264 [info]: profile High, level 4.1x264 [info]: frame I:1116 Avg QP:12.82 size:333045 PSNR Mean Y:50.76 U:54.05 V:54.35 Avg:51.56 Global:50.79x264 [info]: frame P:42224 Avg QP:13.80 size: 87734 PSNR Mean Y:49.10 U:52.60 V:52.89 Avg:49.89 Global:48.95x264 [info]: frame B:75315 Avg QP:16.62 size: 27451 PSNR Mean Y:48.21 U:51.69 V:52.00 Avg:49.01 Global:48.20x264 [info]: consecutive B-frames: 7.6% 8.4% 58.6% 9.3% 6.9% 7.4% 0.7% 0.3% 0.3% 0.1% 0.2% 0.2%x264 [info]: mb I I16..4: 28.9% 50.9% 20.2%x264 [info]: mb P I16..4: 10.0% 13.6% 7.7% P16..4: 24.8% 18.4% 6.9% 1.4% 0.1% skip:17.1%x264 [info]: mb B I16..4: 1.2% 2.8% 1.5% B16..8: 31.4% 14.3% 2.4% direct: 4.4% skip:42.0% L0:38.3% L1:49.7% BI:12.0%x264 [info]: 8x8 transform intra:45.7% inter:43.0%x264 [info]: coded y,uvDC,uvAC intra: 88.7% 72.7% 62.2% inter: 15.6% 13.5% 3.4%x264 [info]: i16 v,h,dc,p: 12% 10% 52% 26%x264 [info]: i8 v,h,dc,ddl,ddr,vr,hd,vl,hu: 11% 14% 17% 7% 9% 9% 10% 10% 13%x264 [info]: i4 v,h,dc,ddl,ddr,vr,hd,vl,hu: 8% 6% 63% 3% 4% 4% 4% 3% 4%x264 [info]: i8c dc,h,v,p: 45% 34% 11% 10%x264 [info]: Weighted P-Frames: Y:2.0% UV:1.4%x264 [info]: ref P L0: 63.8% 7.1% 18.4% 6.7% 4.0% 0.0%x264 [info]: ref B L0: 78.0% 17.8% 4.2%x264 [info]: ref B L1: 87.5% 12.5%x264 [info]: SSIM Mean Y:0.9913936 (20.652db)x264 [info]: PSNR Mean Y:48.554 U:52.037 V:52.340 Avg:49.345 Global:48.471 kb/s:9931.37encoded 118655 frames, 4.16 fps, 9931.37 kb/s
GeneralUnique ID : 233793467680236070114349344588357793973 (0xAFE2FBE8C8AA268E929E55DE338D78B5)Complete name : Zambezia.2012.USTransfer.BDRip.1080p.dfcbit.mkvFormat : MatroskaFormat version : Version 2File size : 7.46 GiBDuration : 1h 22mnOverall bit rate : 13.0 MbpsEncoded date : UTC 2014-03-01 02:43:03Writing application : mkvmerge v4.0.0 ('The Stars were mine') built on Jun 6 2010 16:18:42Writing library : libebml v1.0.0 + libmatroska v1.0.0
VideoID : 1Format : AVCFormat/Info : Advanced Video CodecFormat profile : High@L4.1Format settings, CABAC : YesFormat settings, ReFrames : 4 framesCodec ID : V_MPEG4/ISO/AVCDuration : 1h 22mnBit rate : 9 931 KbpsWidth : 1 920 pixelsHeight : 1 080 pixelsDisplay aspect ratio : 16:9Frame rate mode : ConstantFrame rate : 23.976 fpsColor space : YUVChroma subsampling : 4:2:0Bit depth : 8 bitsScan type : ProgressiveBits/(Pixel*Frame) : 0.200Stream size : 5.72 GiB (75%)Title : NTSC, 1920x1080 (1.778:1), BDRip 1080p - tRuAVC & Multfilmy [DFCbit]Writing library : x264 core 142 r2389kMod 956c8d8Encoding settings : cabac=1 / ref=4 / deblock=1:-2:-1 / analyse=0x3:0x133 / me=umh / subme=11 / psy=1 / fade_compensate=0.00 / psy_rd=0.63:0.00 / mixed_ref=1 / me_range=32 / chroma_me=1 / trellis=2 / 8x8dct=1 / cqm=0 / deadzone=21,11 / fast_pskip=0 / chroma_qp_offset=-2 / threads=12 / lookahead_threads=3 / sliced_threads=0 / nr=0 / decimate=1 / interlaced=0 / bluray_compat=0 / constrained_intra=0 / fgo=0 / bframes=11 / b_pyramid=2 / b_adapt=2 / b_bias=0 / direct=1 / weightb=1 / open_gop=0 / weightp=2 / keyint=250 / keyint_min=23 / scenecut=40 / intra_refresh=0 / rc_lookahead=70 / rc=crf / mbtree=0 / crf=17.6760 / qcomp=0.81 / qpmin=0 / qpmax=69 / qpstep=4 / vbv_maxrate=50000 / vbv_bufsize=62500 / crf_max=0.0 / nal_hrd=none / filler=0 / ip_ratio=1.40 / pb_ratio=1.30 / aq=3:0.90Language : EnglishDefault : YesForced : NoColor primaries : BT.709Transfer characteristics : BT.709Matrix coefficients : BT.709
Audio #1ID : 2Format : DTSFormat/Info : Digital Theater SystemsMode : 16Format settings, Endianness : BigCodec ID : A_DTSDuration : 1h 22mnBit rate mode : ConstantBit rate : 1 509 KbpsChannel(s) : 6 channelsChannel positions : Front: L C R, Side: L R, LFESampling rate : 48.0 KHzBit depth : 16 bitsCompression mode : LossyStream size : 890 MiB (12%)Title : DTS / 5.1 / 48 kHz / 1509 kbps / 16 bit - Дубляж | Студия "Централ Продакшн Интернейшенал Групп"Language : RussianDefault : YesForced : No
Audio #2ID : 3Format : DTSFormat/Info : Digital Theater SystemsMode : 16Format settings, Endianness : BigCodec ID : A_DTSDuration : 1h 22mnBit rate mode : ConstantBit rate : 1 509 KbpsChannel(s) : 6 channelsChannel positions : Front: L C R, Side: L R, LFESampling rate : 48.0 KHzBit depth : 16 bitsCompression mode : LossyStream size : 890 MiB (12%)Title : DTS / 5.1 / 48 kHz / 1509 kbps / 16 bit - OriginalLanguage : EnglishDefault : NoForced : No
Text #1ID : 4Format : UTF-8Codec ID : S_TEXT/UTF8Codec ID/Info : UTF-8 Plain TextTitle : SRT, FullLanguage : RussianDefault : NoForced : No
Text #2ID : 5Format : UTF-8Codec ID : S_TEXT/UTF8Codec ID/Info : UTF-8 Plain TextTitle : SRT, FullLanguage : EnglishDefault : NoForced : No
Text #3ID : 6Format : UTF-8Codec ID : S_TEXT/UTF8Codec ID/Info : UTF-8 Plain TextTitle : SRT, (SDH)Language : EnglishDefault : NoForced : No
Text #4ID : 7Format : UTF-8Codec ID : S_TEXT/UTF8Codec ID/Info : UTF-8 Plain TextTitle : SRT, FullLanguage : FrenchDefault : NoForced : No
Text #5ID : 8Format : UTF-8Codec ID : S_TEXT/UTF8Codec ID/Info : UTF-8 Plain TextTitle : SRT, FullLanguage : SpanishDefault : NoForced : No
Menu00:00:00.000 : en:Chapter 100:04:47.454 : en:Chapter 200:11:04.372 : en:Chapter 300:14:17.398 : en:Chapter 400:18:25.563 : en:Chapter 500:25:07.464 : en:Chapter 600:30:47.637 : en:Chapter 700:34:21.518 : en:Chapter 800:40:36.059 : en:Chapter 900:45:44.867 : en:Chapter 1000:50:53.050 : en:Chapter 1100:55:06.261 : en:Chapter 1201:00:05.811 : en:Chapter 1301:05:55.076 : en:Chapter 1401:09:42.637 : en:Chapter 1501:15:03.165 : en:Chapter 16

Скриншоты

Скриншот с названием мультфильма
--BDRip 1080p


Source Blu-Ray

Релиз от групп | and | -Данный релиз не будет воспроизводиться на бытовых плеерах не поддерживающих MKV и H.264Обсуждение релизов в AVC формате || Свежие AVC рипы

_________________
Показать сообщения:    

Текущее время: Сегодня 06:07

Часовой пояс: GMT



Вы не можете начинать темы
Вы не можете отвечать на сообщения
Вы не можете редактировать свои сообщения
Вы не можете удалять свои сообщения
Вы не можете голосовать в опросах
Вы не можете прикреплять файлы к сообщениям
Вы не можете скачивать файлы