Важное объявление!
У Нас Все раздачи мультитрекерные, при нуле пиров в релизах, можете смело вставать на закачку!
 
Автор Сообщение

HUNTER

Стаж:
4 года 7 месяцев
Сообщений:
61545

Репутация: 101

[+] [-]
Вне форума [Профиль] [ЛС]

| Все релизы мультфильма || BDRip 720p, 3.29 GB |- P R E S E N T SЗамбезия / Zambezia-
Страна: ЮАР
Жанр: мультфильм, приключения, семейный
Продолжительность: 01:22:29
Год выпуска: 2012
Перевод: Профессиональный (полное дублирование)
Субтитры: есть-Режиссёр: Уэйн Тонли / Wayne Thornley
Роли озвучивали: Эбигейл Бреслин, Кори Бертон, Джим Каммингс, Норин ДеВулф, Ли Дуру, Джефф Голдблюм, Ричард Э. Грант, Таня Гунади, Сэмюэл Л. Джексон, Джереми Суарес, Леонард Нимой...
Роли дублировали: Вероника Саркисова, Даниил Эльдаров, Федор Добронравов, Анна Ардова, Эвелина Блёданс, Гавриил Гордеев, Сергей Чихачев, Пётр Иващенко и др.- | | -Описание: В мультфильме рассказывается история жизни юного соколёнка по имени Кай, его приключения, характер, комичные ситуации в которые он попадает на пути к своей главной цели, на пути к заветному птичьему городку Замбезия, в котором он от всей души желает отыскать новых друзей, которые бы скрасили его одиночество и не оставили в беде. Однако для начала ему необходимо преодолеть путь, который полон опасностей и неожиданных поворотов...-Доп. информация: BDRip 720p сделан с Blu-Ray диска из моей коллекции (US Transfer).
Отдельное спасибо xfiles за подготовку русских субтитров.
-Сэмпл/Sample (25.1 MB, 1 минута)-Качество: BDRip 720p
Формат: MKV
Видео: 1280x720 (1.778:1), 23,976 fps, ~4422 kbps avg, 0.200 bit/pixel
Аудио #1: Русский, AC3, 6 ch, 48 kHz, 640 kbps - Дубляж | Студия "Централ Продакшн Интернейшенал Групп"
Аудио #2: English, AC3, 6 ch, 48 kHz, 640 kbps - Original
Субтитры: Русские (полные), English (Full, SDH), French (Full), Spanish (Full)
Навигация по главам: есть (16 не именованных глав)

MediaInfo / x264Log

x264Log

raw [info]: 1280x720p 1:1 @ 24000/1001 fps (cfr)x264 [info]: using SAR=1/1x264 [info]: using cpu capabilities: MMX2 SSE2Fast SSSE3 SSE4.2 AVX XOP FMA4 FMA3 LZCNT BMI1x264 [info]: profile High, level 4.1x264 [info]: frame I:1131 Avg QP:12.57 size:170061 PSNR Mean Y:49.59 U:51.93 V:52.12 Avg:50.19 Global:49.49x264 [info]: frame P:34748 Avg QP:13.68 size: 41745 PSNR Mean Y:48.44 U:51.36 V:51.62 Avg:49.11 Global:48.30x264 [info]: frame B:82776 Avg QP:17.00 size: 13197 PSNR Mean Y:47.84 U:51.02 V:51.31 Avg:48.56 Global:47.73x264 [info]: consecutive B-frames: 5.9% 4.7% 32.7% 17.9% 13.4% 19.2% 1.9% 1.3% 1.0% 0.4% 0.5% 1.0% 0.1%x264 [info]: mb I I16..4: 4.0% 67.9% 28.1%x264 [info]: mb P I16..4: 0.8% 13.3% 2.7% P16..4: 21.7% 25.9% 13.8% 3.9% 0.5% skip:17.5%x264 [info]: mb B I16..4: 0.2% 2.1% 0.4% B16..8: 25.8% 19.5% 4.1% direct: 4.0% skip:44.0% L0:42.1% L1:45.3% BI:12.6%x264 [info]: 8x8 transform intra:78.1% inter:42.7%x264 [info]: coded y,uvDC,uvAC intra: 89.8% 84.3% 69.9% inter: 17.0% 12.8% 5.2%x264 [info]: i16 v,h,dc,p: 25% 13% 8% 54%x264 [info]: i8 v,h,dc,ddl,ddr,vr,hd,vl,hu: 10% 14% 11% 8% 10% 9% 11% 11% 15%x264 [info]: i4 v,h,dc,ddl,ddr,vr,hd,vl,hu: 8% 10% 8% 9% 17% 12% 14% 10% 13%x264 [info]: i8c dc,h,v,p: 40% 29% 15% 16%x264 [info]: Weighted P-Frames: Y:2.3% UV:1.6%x264 [info]: ref P L0: 54.5% 6.9% 15.9% 6.1% 4.7% 3.8% 3.2% 1.9% 1.8% 1.0% 0.0%x264 [info]: ref B L0: 69.6% 12.7% 6.9% 3.5% 2.7% 2.3% 1.6% 0.5%x264 [info]: ref B L1: 90.4% 9.6%x264 [info]: SSIM Mean Y:0.9915655 (20.739db)x264 [info]: PSNR Mean Y:48.032 U:51.127 V:51.408 Avg:48.735 Global:47.900 kb/s:4421.65encoded 118655 frames, 6.97 fps, 4421.65 kb/s
GeneralUnique ID : 250057603834267524077012180907888879332 (0xBC1F57BB7D53BB7C9BD66F67235626E4)Complete name : Zambezia.2012.USTransfer.BDRip.720p.dfcbit.mkvFormat : MatroskaFormat version : Version 2File size : 3.29 GiBDuration : 1h 22mnOverall bit rate : 5 704 KbpsEncoded date : UTC 2014-02-28 17:18:48Writing application : mkvmerge v4.0.0 ('The Stars were mine') built on Jun 6 2010 16:18:42Writing library : libebml v1.0.0 + libmatroska v1.0.0
VideoID : 1Format : AVCFormat/Info : Advanced Video CodecFormat profile : High@L4.1Format settings, CABAC : YesFormat settings, ReFrames : 9 framesCodec ID : V_MPEG4/ISO/AVCDuration : 1h 22mnBit rate : 4 422 KbpsWidth : 1 280 pixelsHeight : 720 pixelsDisplay aspect ratio : 16:9Frame rate mode : ConstantFrame rate : 23.976 fpsColor space : YUVChroma subsampling : 4:2:0Bit depth : 8 bitsScan type : ProgressiveBits/(Pixel*Frame) : 0.200Stream size : 2.55 GiB (76%)Title : NTSC, 1280x720 (1.778:1), BDRip 720p - tRuAVC & Multfilmy [DFCbit]Writing library : x264 core 142 r2389kMod 956c8d8Encoding settings : cabac=1 / ref=9 / deblock=1:-2:-1 / analyse=0x3:0x133 / me=umh / subme=11 / psy=1 / fade_compensate=0.00 / psy_rd=0.63:0.00 / mixed_ref=1 / me_range=32 / chroma_me=1 / trellis=2 / 8x8dct=1 / cqm=0 / deadzone=21,11 / fast_pskip=0 / chroma_qp_offset=-2 / threads=12 / lookahead_threads=3 / sliced_threads=0 / nr=0 / decimate=1 / interlaced=0 / bluray_compat=0 / constrained_intra=0 / fgo=0 / bframes=12 / b_pyramid=2 / b_adapt=2 / b_bias=0 / direct=1 / weightb=1 / open_gop=0 / weightp=2 / keyint=250 / keyint_min=23 / scenecut=40 / intra_refresh=0 / rc_lookahead=70 / rc=crf / mbtree=0 / crf=16.4700 / qcomp=0.81 / qpmin=0 / qpmax=69 / qpstep=4 / vbv_maxrate=50000 / vbv_bufsize=62500 / crf_max=0.0 / nal_hrd=none / filler=0 / ip_ratio=1.40 / pb_ratio=1.30 / aq=3:0.90Language : EnglishDefault : YesForced : NoColor primaries : BT.709Transfer characteristics : BT.709Matrix coefficients : BT.709
Audio #1ID : 2Format : AC-3Format/Info : Audio Coding 3Mode extension : CM (complete main)Format settings, Endianness : BigCodec ID : A_AC3Duration : 1h 22mnBit rate mode : ConstantBit rate : 640 KbpsChannel(s) : 6 channelsChannel positions : Front: L C R, Side: L R, LFESampling rate : 48.0 KHzBit depth : 16 bitsCompression mode : LossyStream size : 378 MiB (11%)Title : AC3, 6 ch, 48 kHz, 640 kbps - Дубляж | Студия "Централ Продакшн Интернейшенал Групп"Language : RussianDefault : YesForced : No
Audio #2ID : 3Format : AC-3Format/Info : Audio Coding 3Mode extension : CM (complete main)Format settings, Endianness : BigCodec ID : A_AC3Duration : 1h 22mnBit rate mode : ConstantBit rate : 640 KbpsChannel(s) : 6 channelsChannel positions : Front: L C R, Side: L R, LFESampling rate : 48.0 KHzBit depth : 16 bitsCompression mode : LossyStream size : 378 MiB (11%)Title : AC3, 6 ch, 48 kHz, 640 kbps - OriginalLanguage : EnglishDefault : NoForced : No
Text #1ID : 4Format : UTF-8Codec ID : S_TEXT/UTF8Codec ID/Info : UTF-8 Plain TextTitle : SRT, FullLanguage : RussianDefault : NoForced : No
Text #2ID : 5Format : UTF-8Codec ID : S_TEXT/UTF8Codec ID/Info : UTF-8 Plain TextTitle : SRT, FullLanguage : EnglishDefault : NoForced : No
Text #3ID : 6Format : UTF-8Codec ID : S_TEXT/UTF8Codec ID/Info : UTF-8 Plain TextTitle : SRT, (SDH)Language : EnglishDefault : NoForced : No
Text #4ID : 7Format : UTF-8Codec ID : S_TEXT/UTF8Codec ID/Info : UTF-8 Plain TextTitle : SRT, FullLanguage : FrenchDefault : NoForced : No
Text #5ID : 8Format : UTF-8Codec ID : S_TEXT/UTF8Codec ID/Info : UTF-8 Plain TextTitle : SRT, FullLanguage : SpanishDefault : NoForced : No
Menu00:00:00.000 : en:Chapter 100:04:47.454 : en:Chapter 200:11:04.372 : en:Chapter 300:14:17.398 : en:Chapter 400:18:25.563 : en:Chapter 500:25:07.464 : en:Chapter 600:30:47.637 : en:Chapter 700:34:21.518 : en:Chapter 800:40:36.059 : en:Chapter 900:45:44.867 : en:Chapter 1000:50:53.050 : en:Chapter 1100:55:06.261 : en:Chapter 1201:00:05.811 : en:Chapter 1301:05:55.076 : en:Chapter 1401:09:42.637 : en:Chapter 1501:15:03.165 : en:Chapter 16

Скриншоты

Скриншот с названием мультфильма
--BDRip 720p


Source Blu-Ray

Релиз от групп | and | -Данный релиз не будет воспроизводиться на бытовых плеерах не поддерживающих MKV и H.264Обсуждение релизов в AVC формате || Свежие AVC рипы

_________________
Показать сообщения:    

Текущее время: Сегодня 18:16

Часовой пояс: GMT



Вы не можете начинать темы
Вы не можете отвечать на сообщения
Вы не можете редактировать свои сообщения
Вы не можете удалять свои сообщения
Вы не можете голосовать в опросах
Вы не можете прикреплять файлы к сообщениям
Вы не можете скачивать файлы
Наши партнеры: интернет магазин Ивановского трикотажа textilla.ru