Важное объявление!
У Нас Все раздачи мультитрекерные, при нуле пиров в релизах, можете смело вставать на закачку!
 
Автор Сообщение

HUNTER

Стаж:
4 года 10 месяцев
Сообщений:
65492

Репутация: 101

[+] [-]
Вне форума [Профиль] [ЛС]

Заложница 3
Taken 3
--Расширенная версия-Страна: Франция
Год выпуска: 2014
Жанр: боевик, триллер
Продолжительность: 01:55:18--Перевод: Профессиональный (дублированный)
Cубтитры: Русские, Английские
Оригинальная аудиодорожка: Английская--Режиссер:
Оливье Мегатон / Olivier Megaton
В ролях:
Лиам Нисон, Мэгги Грэйс, Форест Уитакер, Фамке Янссен, Джонни Уэстон, Дюгрей Скотт, Джон Грайз, Лиленд Орсер, Ал Сапиенца, Эндрю Ховард--Описание:Жизнь бывшего правительственного агента Брайана Миллса рушится, когда его обвиняют в убийстве, которого он не совершал. Преследуемый опытным инспектором полиции, Миллс пытается отследить настоящего убийцу…--Доп. информация:
Источник видео, аудио, субтитров, celltimes - BDRemux (с другого трекера)
Меню создано с нуля, с помощью DVD-lab PRO
Видео перекодировано с помощью ProCoder 3 в 2 прохода.
Аудио получены с помощью программ eac3to и Sonic foundry Soft.-Меню: есть, статичное, не озвученное
Сэмпл: http://sendfile.su/1114223--Тип релиза: DVD5
Контейнер: DVD-Video
Видео: NTSC 16:9 (720x480) VBR, Auto Letterboxed
Аудио 1: Russian (Dolby AC3, 5.1 ch, 448 кб/с) - дубляж
Аудио 2: English (Dolby AC3, 5.1 ch, 448 кб/с) - оригиналРелиз-группа

MI исходника

Общее
Уникальный идентификатор : 177538105209723906206226322329300915657 (0x8590986631034B6BAF9568CB8A7055C9)
Полное имя : E:\utorrent\taken 3 ext.mkv
Формат : Matroska
Версия формата : Version 4 / Version 2
Размер файла : 27,2 Гбайт
Продолжительность : 1 ч. 55 м.
Режим общего битрейта : Переменный
Общий поток : 33,8 Мбит/сек
Название фильма : MR Sergei for NoNaMe Club
Дата кодирования : UTC 2015-04-16 12:14:24
Программа кодирования : mkvmerge v7.8.0 ('River Man') 64bit built on Mar 27 2015 16:31:37
Библиотека кодирования : libebml v1.3.1 + libmatroska v1.4.2
Attachements : Taken-3.jpg
DURATION : 01:55:18.528000000
NUMBER_OF_FRAMES : 216204
NUMBER_OF_BYTES : 553482240
_STATISTICS_WRITING_APP : mkvmerge v7.8.0 ('River Man') 64bit built on Mar 27 2015 16:31:37
_STATISTICS_WRITING_DATE_UTC : 2015-04-16 12:14:24
_STATISTICS_TAGS : BPS DURATION NUMBER_OF_FRAMES NUMBER_OF_BYTES
Видео
Идентификатор : 1
Формат : AVC
Формат/Информация : Advanced Video Codec
Профиль формата : High@L4.1
Параметр CABAC формата : Да
Параметр ReFrames формата : 4 кадра
Идентификатор кодека : V_MPEG4/ISO/AVC
Продолжительность : 1 ч. 55 м.
Вид битрейта : Переменный
Максимальный битрейт : 34,0 Мбит/сек
Ширина : 1920 пикселей
Высота : 1080 пикселей
Соотношение сторон : 16:9
Режим частоты кадров : Постоянный
Частота кадров : 23,976 кадра/сек
Цветовое пространство : YUV
Субдискретизация насыщенности : 4:2:0
Битовая глубина : 8 бит
Тип развёртки : Прогрессивная
Язык : English
Default : Да
Forced : Нет
Аудио #1
Идентификатор : 2
Формат : DTS
Формат/Информация : Digital Theater Systems
Режим : 16
Параметр Endianness формата : Big
Идентификатор кодека : A_DTS
Продолжительность : 1 ч. 55 м.
Вид битрейта : Постоянный
Битрейт : 768 Кбит/сек
Каналы : 6 каналов
Расположение каналов : Front: L C R, Side: L R, LFE
Частота : 48,0 КГц
Битовая глубина : 24 бит
Метод сжатия : С потерями
Размер потока : 633 Мбайт (2%)
Заголовок : DTS 5.1 @ 768 kbps - DUB, Blu-ray EUR
Язык : Russian
Default : Да
Forced : Нет
Аудио #2
Идентификатор : 3
Формат : AC-3
Формат/Информация : Audio Coding 3
Расширение режима : CM (complete main)
Параметр Endianness формата : Big
Идентификатор кодека : A_AC3
Продолжительность : 1 ч. 55 м.
Вид битрейта : Постоянный
Битрейт : 640 Кбит/сек
Каналы : 6 каналов
Расположение каналов : Front: L C R, Side: L R, LFE
Частота : 48,0 КГц
Битовая глубина : 16 бит
Метод сжатия : С потерями
Размер потока : 528 Мбайт (2%)
Заголовок : AC3 5.1 @ 640 kbps - DUB, Blu-ray EUR
Язык : Russian
Default : Нет
Forced : Нет
Аудио #3
Идентификатор : 4
Формат : AC-3
Формат/Информация : Audio Coding 3
Расширение режима : CM (complete main)
Параметр Endianness формата : Big
Идентификатор кодека : A_AC3
Продолжительность : 1 ч. 55 м.
Вид битрейта : Постоянный
Битрейт : 448 Кбит/сек
Каналы : 6 каналов
Расположение каналов : Front: L C R, Side: L R, LFE
Частота : 48,0 КГц
Битовая глубина : 16 бит
Метод сжатия : С потерями
Размер потока : 369 Мбайт (1%)
Заголовок : AC3 5.1 @ 448 kbps - DUB, Blu-ray EUR
Язык : Ukrainian
Default : Нет
Forced : Нет
Аудио #4
Идентификатор : 5
Формат : DTS
Формат/Информация : Digital Theater Systems
Профиль формата : MA / Core
Режим : 16
Параметр Endianness формата : Big
Идентификатор кодека : A_DTS
Продолжительность : 1 ч. 55 м.
Вид битрейта : Переменный
Битрейт : Неизвестно / 1509 Кбит/сек
Каналы : 6 каналов
Расположение каналов : Front: L C R, Side: L R, LFE
Частота : 48,0 КГц
Битовая глубина : 24 бит
Метод сжатия : Без потерь / Lossy
Заголовок : DTS-HD MA 5.1 @ 3647 kbps - Original, Blu-ray EUR
Язык : English
Default : Нет
Forced : Нет
Аудио #5
Идентификатор : 6
Формат : AC-3
Формат/Информация : Audio Coding 3
Расширение режима : CM (complete main)
Параметр Endianness формата : Big
Идентификатор кодека : A_AC3
Продолжительность : 1 ч. 55 м.
Вид битрейта : Постоянный
Битрейт : 448 Кбит/сек
Каналы : 6 каналов
Расположение каналов : Front: L C R, Side: L R, LFE
Частота : 48,0 КГц
Битовая глубина : 16 бит
Метод сжатия : С потерями
Размер потока : 369 Мбайт (1%)
Заголовок : AC3 5.1 @ 448 kbps - Comentary, Blu-ray EUR
Язык : English
Default : Нет
Forced : Нет
Текст #1
Идентификатор : 7
Формат : UTF-8
Идентификатор кодека : S_TEXT/UTF8
Идентификатор кодека/Информация : UTF-8 Plain Text
Заголовок : iTunes
Язык : Russian
Default : Нет
Forced : Нет
Текст #2
Идентификатор : 8
Формат : UTF-8
Идентификатор кодека : S_TEXT/UTF8
Идентификатор кодека/Информация : UTF-8 Plain Text
Заголовок : iTunes
Язык : Ukrainian
Default : Нет
Forced : Нет
Текст #3
Идентификатор : 9
Формат : UTF-8
Идентификатор кодека : S_TEXT/UTF8
Идентификатор кодека/Информация : UTF-8 Plain Text
Заголовок : Forced, iTunes
Язык : English
Default : Нет
Forced : Нет
Текст #4
Идентификатор : 10
Формат : UTF-8
Идентификатор кодека : S_TEXT/UTF8
Идентификатор кодека/Информация : UTF-8 Plain Text
Заголовок : iTunes
Язык : English
Default : Нет
Forced : Нет
Меню
00:00:00.000 : en:00:00:00.000
00:04:18.091 : en:00:04:18.091
00:10:12.820 : en:00:10:12.820
00:13:20.466 : en:00:13:20.466
00:15:44.986 : en:00:15:44.986
00:18:25.354 : en:00:18:25.354
00:23:18.814 : en:00:23:18.814
00:25:49.256 : en:00:25:49.256
00:27:34.861 : en:00:27:34.861
00:30:21.403 : en:00:30:21.403
00:33:01.146 : en:00:33:01.146
00:36:00.283 : en:00:36:00.283
00:38:17.795 : en:00:38:17.795
00:43:08.419 : en:00:43:08.419
00:46:46.428 : en:00:46:46.428
00:50:21.143 : en:00:50:21.143
00:55:00.338 : en:00:55:00.338
00:59:07.293 : en:00:59:07.293
01:02:49.641 : en:01:02:49.641
01:05:56.953 : en:01:05:56.953
01:07:13.863 : en:01:07:13.863
01:09:59.028 : en:01:09:59.028
01:14:26.086 : en:01:14:26.086
01:18:10.185 : en:01:18:10.185
01:22:19.518 : en:01:22:19.518
01:25:26.162 : en:01:25:26.162
01:29:38.206 : en:01:29:38.206
01:33:24.473 : en:01:33:24.473
01:37:07.571 : en:01:37:07.571
01:40:37.656 : en:01:40:37.656
01:46:48.443 : en:01:46:48.443
01:49:42.993 : en:01:49:42.993

DVDInfo

Title: Taken 3 (ext) DVD5
Size: 4.37 Gb ( 4 579 450,00 KBytes ) - DVD-5
Enabled regions: 1, 2, 3, 4, 5, 6, 7, 8
VTS_01 :
Play Length: 01:55:18
Video: NTSC 16:9 (720x480) VBR, Auto Letterboxed
Audio:
Russian (Dolby AC3, 6 ch)
English (Dolby AC3, 6 ch)
Subtitles:
Russian
English

Программы используемые для создания релиза

Видео
ProCoder 3 - конвертация видео
AviSynth - обработка видео
FFMpegSource2 - индексирование
Звук
eac3to- разборка на waw
Sonic foundry Soft-получение ac3 448
Програмы для разборки/сборки
eac3to - разложение BD на потоки
Работа с меню и реавторинг
DVD-lab PRO - создание меню
Adobe Photoshop - редактирование меню
DVDReMakePro - реавторинг диска

Скрипт

LoadPlugin("C:\Program Files (x86)\FFMpegSource2\ffms2.dll") # подключение декодера
FFVideoSource("D:\BD-DVD\taken 3 ext.mkv") #открытие видео
LoadPlugin("D:\programs\autoyuy\AutoYUY2.dll") #подключение плагина
AutoYUY2() # конверсия цветового пространства
LoadPlugin("D:\programs\ColorMatrix\ColorMatrix.dll")
ColorMatrix(mode="Rec.709->Rec.601", inputFR=false, clamp=0) # 16-235
#ColorMatrix(mode="Rec.709->Rec.601", inputFR=true, clamp=0) # 0-255
BicubicResize(720, 480, 0, 0.5) #ресайз методом Catmull-Rom spline
AssumeFPS ("ntsc_film") #изменение частоты кадров под стандарт NTSC

-
-

Скриншоты меню

Скриншоты



-

Обложки


_________________
Показать сообщения:    

Текущее время: Сегодня 04:21

Часовой пояс: GMT



Вы не можете начинать темы
Вы не можете отвечать на сообщения
Вы не можете редактировать свои сообщения
Вы не можете удалять свои сообщения
Вы не можете голосовать в опросах
Вы не можете прикреплять файлы к сообщениям
Вы не можете скачивать файлы