Залив ангелов / La baie des anges / Bay of Angels (Жак Деми / Jacques Demy) [1963 г., Франция, драма, BDRip 720p] [Criterion #715] Original Fre + Sub (Rus, Eng) :: Ивановский Торрент трекер
Важное объявление!
У Нас Все раздачи мультитрекерные, при нуле пиров в релизах, можете смело вставать на закачку!
Статистика раздачи
Размер:     |    Зарегистрирован:     |    Скачан:     |   
Нет
 
     
 
 
Автор Сообщение

HUNTER

Стаж:
4 года 11 месяцев
Сообщений:
66052

Репутация: 101

[+] [-]
Вне форума [Профиль] [ЛС]

Залив ангелов / La baie des anges / Bay of Angels-
Год выпуска: 1963
Страна: Франция
Жанр: драма
Продолжительность: 01:24:32
Перевод: Субтитры
Оригинальная аудиодорожка: Французская
Cубтитры: Русские (Seandy), английские-Режиссер: Жак Деми / Jacques Demy
В ролях: Жанна Моро, Клод Манн, Поль Гер, Анри Нассье, Андре Сертес, Николь Шолле, Жорж Элбан, Кончита Пароди, Жак Моро, Андре Кантер-Описание:
Случайно попав в казино, Жан в одночасье выигрывает крупную сумму денег — и этот выигрыш заставляет его переоценить все жизненные ценности. Он едет на Лазурный берег, в Ниццу — город, раскинувшийся на берегу Залива Ангелов, чтобы играть, играть, играть…
Там он знакомится с Джеки — заядлым игроком, потерявшей из-за своего пристрастия даже семью. («Мне кажется, что я его проиграла», — говорит она о своём сыне.) Ей уже достаточно безразлично — выигрывает она или проигрывает, ей безразлична и роскошь, которой она может окружить себя в случае везения… Главное — чтобы перед глазами вращалось колесо рулетки.- | IMDb | Сэмпл-Качество: BDRip 720p (GCJM)
Контейнер: MKV
Видео: 1200x720 (1.66:1), 23.976 fps, 4956 kbps
Аудио: Французский DTS 1.0, 48 kHz, 768 kbps, 24-bit
Формат субтитров: softsub (SRT)

Скриншоты


MI

General
Unique ID : 236404873277575772591007625990639494939 (0xB1D9EC25518A02C6BFC3973F007CA71B)
Complete name : La.baie.des.anges.1963.720p.Criterion.Bluray.DTS.x264-GCJM.mkv
Format : Matroska
Format version : Version 2
File size : 3.38 GiB
Duration : 1h 24mn
Overall bit rate : 5 725 Kbps
Movie name : Залив ангелов / La baie des anges (1963) – RuTracker
Encoded date : UTC 2014-08-26 12:31:21
Writing application : mkvmerge v7.0.0 ('Where We Going') 64bit built on Jun 9 2014 15:16:27
Writing library : libebml v1.3.0 + libmatroska v1.4.1
Attachment : Yes
Video
ID : 1
Format : AVC
Format/Info : Advanced Video Codec
Format profile : High@L4.1
Format settings, CABAC : Yes
Format settings, ReFrames : 6 frames
Codec ID : V_MPEG4/ISO/AVC
Duration : 1h 24mn
Bit rate : 4 956 Kbps
Width : 1 200 pixels
Height : 720 pixels
Display aspect ratio : 1.667
Frame rate mode : Constant
Frame rate : 23.976 fps
Color space : YUV
Chroma subsampling : 4:2:0
Bit depth : 8 bits
Scan type : Progressive
Bits/(Pixel*Frame) : 0.239
Stream size : 2.86 GiB (85%)
Title : La.baie.des.anges.1963.720p.Criterion.Bluray.DTS.x264-GCJM
Writing library : x264 core 142 r2431 ac76440
Encoding settings : cabac=1 / ref=6 / deblock=1:-3:-3 / analyse=0x3:0x133 / me=umh / subme=9 / psy=1 / psy_rd=1.00:0.00 / mixed_ref=1 / me_range=24 / chroma_me=1 / trellis=1 / 8x8dct=1 / cqm=0 / deadzone=21,11 / fast_pskip=0 / chroma_qp_offset=-2 / threads=4 / lookahead_threads=1 / sliced_threads=0 / nr=0 / decimate=0 / interlaced=0 / bluray_compat=0 / constrained_intra=0 / bframes=4 / b_pyramid=2 / b_adapt=2 / b_bias=0 / direct=1 / weightb=1 / open_gop=0 / weightp=2 / keyint=230 / keyint_min=23 / scenecut=40 / intra_refresh=0 / rc_lookahead=60 / rc=2pass / mbtree=1 / bitrate=4956 / ratetol=1.0 / qcomp=0.60 / qpmin=0 / qpmax=69 / qpstep=4 / cplxblur=20.0 / qblur=0.5 / vbv_maxrate=40000 / vbv_bufsize=30000 / nal_hrd=none / filler=0 / ip_ratio=1.40 / aq=1:1.00
Language : French
Default : Yes
Forced : No
Audio
ID : 2
Format : DTS
Format/Info : Digital Theater Systems
Mode : 16
Format settings, Endianness : Big
Codec ID : A_DTS
Duration : 1h 24mn
Bit rate mode : Constant
Bit rate : 768 Kbps
Channel(s) : 1 channel
Channel positions : Front: C
Sampling rate : 48.0 KHz
Bit depth : 24 bits
Compression mode : Lossy
Stream size : 464 MiB (13%)
Language : French
Default : Yes
Forced : No
Text #1
ID : 3
Format : UTF-8
Codec ID : S_TEXT/UTF8
Codec ID/Info : UTF-8 Plain Text
Title : Seandy
Language : Russian
Default : Yes
Forced : No
Text #2
ID : 4
Format : UTF-8
Codec ID : S_TEXT/UTF8
Codec ID/Info : UTF-8 Plain Text
Language : English
Default : No
Forced : No
Menu
00:00:00.000 : en:01. Playing on the sly
00:05:20.487 : en:02. Kicked out
00:09:50.757 : en:03. Minimum, maximum
00:16:16.142 : en:04. To the Riviera
00:21:00.968 : en:05. Thirteen
00:27:18.887 : en:06. Life's tricks
00:31:01.902 : en:07. Opulent lifestyle
00:34:34.447 : en:08. Winning feeling
00:40:43.232 : en:09. A place to stay
00:46:06.347 : en:10. Back to Paris
00:52:24.975 : en:11. Hustler's luck
00:59:25.228 : en:12. The high life
01:04:51.137 : en:13. Unlucky night
01:10:31.269 : en:14. Lies and apologies
01:18:13.981 : en:15. Too late

_________________
Показать сообщения:    

Текущее время: Сегодня 22:39

Часовой пояс: GMT



Вы не можете начинать темы
Вы не можете отвечать на сообщения
Вы не можете редактировать свои сообщения
Вы не можете удалять свои сообщения
Вы не можете голосовать в опросах
Вы не можете прикреплять файлы к сообщениям
Вы не можете скачивать файлы