Закусочная Боба / Бургеры Боба / Bob's Burgers / Сезон: 3 / Серии: 3 (23) (Лорен Бучард / Loren Bouchard) [2012, Комедия, WEB-DL 720p]|P|MVO :: Ивановский Торрент трекер
Важное объявление!
У Нас Все раздачи мультитрекерные, при нуле пиров в релизах, можете смело вставать на закачку!
 
Автор Сообщение

димитри37

Стаж:
4 года 3 месяца
Сообщений:
1236

Репутация: 127

[+] [-]
Вне форума [Профиль] [ЛС]

Закусочная Боба / Бургеры Боба / Bob's Burgers-
Сезон 3
Страна: США
Студия: 20th Century Fox Television
Жанр: Комедия
Продолжительность: ~ 21 мин
Год выпуска: 2012
Перевод: Профессиональный (многоголосый закадровый) [2x2]
Субтитры: Нет
Режиссёр: Лорен Бучард / Loren Bouchard
Роли озвучивали: H. Jon Benjamin, Dan Mintz, Eugene Mirman, John Roberts, Kristen Schaal-Описание: Боб не самый удачливый предприниматель. Его закусочная "Бургеры Боба" постоянно терпит неудачи - ее слишком часто закрывают. Но он уверен, что совсем скоро добьется успеха! Ерунда, что жена Линда постоянно закатывает Бобу истерики, а дети Тина, Джин и Луиза чаще всего оказываются виновными во всех его неудачах. Ведь главное - это чтобы семья всегда была вместе!
Качество: WEB-DL 720p
Формат: MKV
Видео: MPEG-4 AVC, 1280x720, 23.976 fps, ~ 3000 kbps
Аудио: Английский, AC3 Dolby Digital, 6 ch, 384 kbps, 48 kHz

Список серий

Список Серий:
01 Ear-sy Rider / Ушастый Байкер
02 Full Bars / Шоколадные Плитки
03 Bob Fires The Kids / Боб Увольняет Детей
04 Mutiny On The Windbreaker
05 An Indecent Thanksgiving Proposal
06 The Deepening
07 Tina-Rannosaurus Wrecks
08 The Unbearable Like-Likeness Of Gene
09 God Rest Ye Merry Gentle-Mannequins

Скриншоты


Медиаинфо

Общее
Уникальный идентификатор : 225988150679983001568674030551146761313 (0xAA03BC11D58A41C49B084482645D0C61)
Полное имя : D:\Раздачи\Bob's.Burgers.Season.3.2012.x264.WEB-DL.720p.Zuich32\01 Ear-sy Rider.mkv
Формат : Matroska
Версия формата : Version 2
Размер файла : 556 Мбайт
Продолжительность : 21 м.
Общий поток : 3594 Кбит/сек
Название фильма : Bob's Burgers: S03E01 - Ear-Sy Rider
Дата кодирования : UTC 2012-12-05 22:58:55
Программа кодирования : mkvmerge v5.8.0 ('No Sleep / Pillow') built on Sep 2 2012 15:37:04
Библиотека кодирования : libebml v1.2.3 + libmatroska v1.3.0
Видео
Идентификатор : 1
Формат : AVC
Формат/Информация : Advanced Video Codec
Профиль формата : High@L3.1
Параметр CABAC формата : Нет
Параметр ReFrames формата : 2 кадра
Идентификатор кодека : V_MPEG4/ISO/AVC
Продолжительность : 21 м.
Битрейт : 3138 Кбит/сек
Ширина : 1280 пикселей
Высота : 720 пикселей
Соотношение сторон : 16:9
Частота кадров : 23,976 кадра/сек
Цветовое пространство : YUV
Субдискретизация насыщенности : 4:2:0
Битовая глубина : 8 бит
Тип развёртки : Прогрессивная
Бит/(Пиксели*Кадры) : 0.142
Размер потока : 486 Мбайт (87%)
Заголовок : Ear-sy Rider
Default : Да
Forced : Да
Основные цвета : BT.709-5, BT.1361, IEC 61966-2-4, SMPTE RP177
Характеристики трансфера : BT.709-5, BT.1361
Коэффициенты матрицы : BT.709-5, BT.1361, IEC 61966-2-4 709, SMPTE RP177
Аудио
Идентификатор : 2
Формат : AC-3
Формат/Информация : Audio Coding 3
Расширение режима : CM (complete main)
Параметр Endianness формата : Big
Идентификатор кодека : A_AC3
Продолжительность : 21 м.
Вид битрейта : Постоянный
Битрейт : 384 Кбит/сек
Каналы : 6 каналов
Расположение каналов : Front: L C R, Side: L R, LFE
Частота : 48,0 КГц
Битовая глубина : 16 бит
Метод сжатия : С потерями
Задержка видео : 10 мс.
Размер потока : 59,4 Мбайт (11%)
Заголовок : Original - AC3 Dolby Digital, 6 ch, 384 kbps, 48 kHz
Язык : English
Default : Да
Forced : Да
Текст #1
Идентификатор : 3
Формат : ASS
Идентификатор кодека : S_TEXT/ASS
Идентификатор кодека/Информация : Advanced Sub Station Alpha
Метод сжатия : Без потерь
Заголовок : Ушастый Ездок
Язык : Russian
Default : Да
Forced : Нет
Текст #2
Идентификатор : 4
Формат : ASS
Идентификатор кодека : S_TEXT/ASS
Идентификатор кодека/Информация : Advanced Sub Station Alpha
Метод сжатия : Без потерь
Заголовок : Ear-sy Rider
Язык : English
Default : Нет
Forced : Нет

Сравнение скриншотов


Сравнение с раздачей http://rutracker.org/forum/viewtopic.php?t=4245894
-
Показать сообщения:    

Текущее время: Сегодня 03:53

Часовой пояс: GMT



Вы не можете начинать темы
Вы не можете отвечать на сообщения
Вы не можете редактировать свои сообщения
Вы не можете удалять свои сообщения
Вы не можете голосовать в опросах
Вы не можете прикреплять файлы к сообщениям
Вы не можете скачивать файлы