Важное объявление!
У Нас Все раздачи мультитрекерные, при нуле пиров в релизах, можете смело вставать на закачку!
 
Автор Сообщение

димитри37

Стаж:
4 года
Сообщений:
1236

Репутация: 127

[+] [-]
Вне форума [Профиль] [ЛС]

Закусочная Боба / Бургеры Боба / Bob's Burgers-
Сезон 2
Страна: США
Студия: 20th Century Fox Television
Жанр: Комедия
Продолжительность: ~ 21 мин
Год выпуска: 2012
Перевод: Профессиональный (многоголосый закадровый) [2x2]
Субтитры: Нет
Режиссёр: Лорен Бучард / Loren Bouchard
Роли озвучивали: H. Jon Benjamin, Dan Mintz, Eugene Mirman, John Roberts, Kristen Schaal-Описание: Боб не самый удачливый предприниматель. Его закусочная "Бургеры Боба" постоянно терпит неудачи - ее слишком часто закрывают. Но он уверен, что совсем скоро добьется успеха! Ерунда, что жена Линда постоянно закатывает Бобу истерики, а дети Тина, Джин и Луиза чаще всего оказываются виновными во всех его неудачах. Ведь главное - это чтобы семья всегда была вместе!-Качество: WEB-DL 720p
Формат: MKV
Видео: MPEG-4 AVC, 1280x720, 23.976 fps, ~ 3000 kbps
Аудио 1: Русский, AC3 Dolby Digital, 2 ch, 192 kbps, 48 kHz
Аудио 2: Английский, AC3 Dolby Digital, 6 ch, 384 kbps, 48 kHz

Список Серий

Список Серий:
01 Belchies / Клад
02 Bob Day Afternoon / Бобрый День
03 Synchronized Swimming / Синхронное Плавание
04 Burgerboss / Бургербосс
05 Food Truckin / Фургоны с Едой
06 Dr. Yap / Доктор Йап
07 Moody Foodie / Критик-Нытик
08 Bad Tina / Плохая Тина
09 Beefsquatch / Йетибургер

Скриншоты


Медиаинфо

Общее
Уникальный идентификатор : 197180823715059623584445303998421248950 (0x9457A53168CD95E4BBAA634B0975ABB6)
Полное имя : D:\Раздачи\Bobs.Burgers.Season.2.2012.x264.WEB-DL.720p.Zuich32\02 Bob Day Afternoon.mkv
Формат : Matroska
Версия формата : Version 4 / Version 2
Размер файла : 566 Мбайт
Продолжительность : 21 м.
Общий поток : 3663 Кбит/сек
Дата кодирования : UTC 2013-05-15 11:18:20
Программа кодирования : mkvmerge v6.2.0 ('Promised Land') built on Apr 28 2013 12:22:01
Библиотека кодирования : libebml v1.3.0 + libmatroska v1.4.0
Видео
Идентификатор : 1
Формат : AVC
Формат/Информация : Advanced Video Codec
Профиль формата : High@L3.1
Параметр CABAC формата : Нет
Параметр ReFrames формата : 2 кадра
Идентификатор кодека : V_MPEG4/ISO/AVC
Продолжительность : 21 м.
Битрейт : 3014 Кбит/сек
Ширина : 1280 пикселей
Высота : 720 пикселей
Соотношение сторон : 16:9
Режим частоты кадров : Постоянный
Частота кадров : 23,976 кадра/сек
Цветовое пространство : YUV
Субдискретизация насыщенности : 4:2:0
Битовая глубина : 8 бит
Тип развёртки : Прогрессивная
Бит/(Пиксели*Кадры) : 0.136
Размер потока : 465 Мбайт (82%)
Заголовок : Bob Day Afternoon
Default : Да
Forced : Нет
Основные цвета : BT.709
Характеристики трансфера : BT.709
Коэффициенты матрицы : BT.709
Аудио #1
Идентификатор : 2
Формат : AC-3
Формат/Информация : Audio Coding 3
Расширение режима : CM (complete main)
Параметр Endianness формата : Big
Идентификатор кодека : A_AC3
Продолжительность : 21 м.
Вид битрейта : Постоянный
Битрейт : 192 Кбит/сек
Каналы : 2 канала
Расположение каналов : Front: L R
Частота : 48,0 КГц
Битовая глубина : 16 бит
Метод сжатия : С потерями
Размер потока : 29,6 Мбайт (5%)
Заголовок : 2x2 - AC3 Dolby Digital, 2ch, 192 kbps, 48 kHz
Язык : Russian
Default : Да
Forced : Нет
Аудио #2
Идентификатор : 3
Формат : AC-3
Формат/Информация : Audio Coding 3
Расширение режима : CM (complete main)
Параметр Endianness формата : Big
Идентификатор кодека : A_AC3
Продолжительность : 21 м.
Вид битрейта : Постоянный
Битрейт : 384 Кбит/сек
Каналы : 6 каналов
Расположение каналов : Front: L C R, Side: L R, LFE
Частота : 48,0 КГц
Битовая глубина : 16 бит
Метод сжатия : С потерями
Размер потока : 59,3 Мбайт (10%)
Заголовок : Original - AC3 Dolby Digital, 6ch, 384 kbps, 48 kHz
Язык : English
Default : Нет
Forced : Нет
-
Показать сообщения:    

Текущее время: Сегодня 10:32

Часовой пояс: GMT



Вы не можете начинать темы
Вы не можете отвечать на сообщения
Вы не можете редактировать свои сообщения
Вы не можете удалять свои сообщения
Вы не можете голосовать в опросах
Вы не можете прикреплять файлы к сообщениям
Вы не можете скачивать файлы
Наши партнеры: интернет магазин Ивановского трикотажа textilla.ru