Важное объявление!
У Нас Все раздачи мультитрекерные, при нуле пиров в релизах, можете смело вставать на закачку!
 
Автор Сообщение

Рокси

Стаж:
4 года 5 месяцев
Сообщений:
7
Вне форума [Профиль] [ЛС]

Законопослушный гражданин / Law abiding citizen
Режиссёрская версия / Unrated director's cut
Страна: США | Overture Films
Жанр: триллер, драма, криминал
Год выпуска: 2009
Продолжительность: 01:58:06
Перевод: Авторский (одноголосый закадровый) (Юрий Сербин)
Cубтитры: нет
Режиссер: Ф. Гэри Грей / F. Gary Gray
В ролях: Джейми Фокс, Джерард Батлер, Колм Мини, Брюс МакГилл, Лесли Бибб, Майкл Ирби, Грегори Итцин, Реджина Холл, Эмиральд Янг, Кристиан Столте
Описание: Добропорядочный житель Филадельфии Клайд Шелтон теряет семью в результате бандитского нападения. Но когда преступники оказались в руках правосудия, выяснилось, что юридической Системе удобнее пойти на сделку с одним из бандитов, чтобы дать высшую меру другому.
Помощник окружного прокурора Ник Райс идет на эту сделку, вопреки протестам возмущенного Шелтона, свято верящего в безукоризненность Закона. Но его права были попраны… И тогда спустя годы безвестный мститель начинает творить собственную расправу над убийцами. Ник Райс достаточно быстро находит его. Это… Клайд Шелтон. Райсу кажется, что ему нетрудно добиться признания от раздавленного семейной трагедией Клайда.
Каково же изумление всех работников Системы, когда они обнаруживают, что даже помещенный в тюрьму, этот человек способен на самую жестокую и изощренную месть. Более того, они оказались совершенно бессильны перед гениальной игрой и смертоносными ударами изолированного в одиночке Шелтона! Законопослушный гражданин начал беспощадную войну против всех них. И дело вовсе не в мести…
Доп. информация: Подробнее с отличиями между theatrical version и unrated director's cut можно ознакомиться здесь - отличия
Сэмпл: http://multi-up.com/581307
Качество видео: HDRip (BDRip 720p)
Формат видео: AVI
Видео: 720x304 (2,35:1); 1308 Kbps; 23.976 fps; 0.249 bpf
Аудио: 48 kHz, AC3 Dolby Digital, 3/2 (L,C,R,l,r) + LFE ch, ~448 kbps

MediaInfo

Video
ID : 0
Format : MPEG-4 Visual
Format profile : Advanced Simple@L5
Format settings, BVOP : 2
Format settings, QPel : No
Format settings, GMC : No warppoints
Format settings, Matrix : Custom
Codec ID : XVID
Codec ID/Hint : XviD
Duration : 1h 58mn
Bit rate : 1 308 Kbps
Width : 720 pixels
Height : 304 pixels
Display aspect ratio : 2.35:1
Frame rate : 23.976 fps
Color space : YUV
Chroma subsampling : 4:2:0
Bit depth : 8 bits
Scan type : Progressive
Compression mode : Lossy
Bits/(Pixel*Frame) : 0.249
Stream size : 1.08 GiB (74%)
Writing library : XviD 1.2.1 (UTC 2008-12-04)
Audio
ID : 1
Format : AC-3
Format/Info : Audio Coding 3
Mode extension : CM (complete main)
Codec ID : 2000
Duration : 1h 58mn
Bit rate mode : Constant
Bit rate : 448 Kbps
Channel(s) : 6 channels
Channel positions : Front: L C R, Side: L R, LFE
Sampling rate : 48.0 KHz
Bit depth : 16 bits
Compression mode : Lossy
Stream size : 378 MiB (25%)
Alignment : Split accross interleaves
Interleave, duration : 42 ms (1.00 video frame)
Interleave, preload duration : 500 ms

_________________
Роспись!

VitalIX

Стаж:
4 года 6 месяцев
Сообщений:
60

Репутация: 9

[+] [-]
Вне форума [Профиль] [ЛС]

фильм просто класс. спасибо автору релиза.

_________________
Подпись отключена за нарушение правил форума
Показать сообщения:    

Текущее время: Сегодня 18:38

Часовой пояс: GMT



Вы не можете начинать темы
Вы не можете отвечать на сообщения
Вы не можете редактировать свои сообщения
Вы не можете удалять свои сообщения
Вы не можете голосовать в опросах
Вы не можете прикреплять файлы к сообщениям
Вы не можете скачивать файлы
Наши партнеры: интернет магазин Ивановского трикотажа textilla.ru