Важное объявление!
У Нас Все раздачи мультитрекерные, при нуле пиров в релизах, можете смело вставать на закачку!
 
Автор Сообщение

HUNTER

Стаж:
4 года 8 месяцев
Сообщений:
62020

Репутация: 101

[+] [-]
Вне форума [Профиль] [ЛС]

Заколдованный дом / Дом с привидениями / La casa stregata / The Haunted House
Страна: Италия
Жанр: комедия
Год выпуска: 1982
Продолжительность: 01:32:15
Перевод: Одноголосый закадровый Andi999
Cубтитры: итальянские
Оригинальная аудиодорожка: итальянский
Режиссер: Бруно Корбуччи / Bruno Corbucci
В ролях: Ренато Поццетто, Глория Гвида, Лия Дзоппелли, Йорго Воягис, Марильда Дона, Анджело Пеллегрино, Рита Форзано, Лео Гаверо, Анджело Никорта, Альдо Ралли
Описание: Во тьме веков прозвучало заклятие колдуньи, которая возмутилась, увидев свою дочь в объятиях сарацинского воина, и произнесла: "Превращаю вас в соляные столбы, и не раньше, чем через 1000 лет, ваши души смогут найти друг друга. В том случае, если реинкарнация девушки к этому дню останется чиста, сила заклятия исчезнет!"
Тысяча лет пролетела, как одно мгновение... И основное действие картины происходит в наши дни. Не блещущий красотой и ловкостью молодой бухгалтер Джорджио ( Ренато Поццетто) собирается жениться на красавице Кандиде (Глория Гвида), но она предпочитает, чтобы ее избранник сначала нашел место жительства для будущей семьи. Благодаря случаю, он за бесценок снимает виллу, в которой, правда, обитают привидения, но Джорждио это не пугает. Герой фильма не особенно удивляется, даже когда его пес Гаэтано заговаривает с ним человеческим языком и рассказывает историю о древнем заклятии...
Доп. информация: Диск из собственной коллекции.
Бонусы: Интервью, биографии
Сэмпл: http://sendfile.su/1139152
Тип релиза: DVD5 (Custom)
Контейнер: DVD-Video
Видео: PAL 4:3 (720x576) VBR
Аудио: Russian (Dolby AC3, 192 Kbps, 2 ch)
Аудио 2: Italiano (Dolby AC3, 192 Kbps, 2 ch)
Формат субтитров: prerendered (DVD/IDX+SUB)

DVDInfo

Size: 4.36 Gb ( 4 566 754 KBytes ) - DVD-5
Enabled regions: 1, 2, 3, 4, 5, 6, 7, 8
VTS_01 :
Play Length: 01:32:15
Video: PAL 4:3 (720x576) VBR
Audio:
Russian (Dolby AC3, 2 ch)
Italiano (Dolby AC3, 2 ch)
Subtitles:
Italiano
VTS_02 :
Play Length: 00:08:32
Video: PAL 4:3 (720x576) VBR
Audio:
Italiano (Dolby AC3, 2 ch)
Menu Video:
PAL 4:3 (720x576) VBR
Menu Audio:
Not specified (Dolby AC3, 6 ch)
Menu Subtitles:
Not specified
Menu Italiano Language Unit :
Root Menu

MediaInfo

General
Complete name : K:\La casa stregata_1982\VIDEO_TS\VTS_01_1.VOB
Format : MPEG-PS
File size : 1 024 MiB
Duration : 23mn 16s
Overall bit rate mode : Variable
Overall bit rate : 6 152 Kbps
Video
ID : 224 (0xE0)
Format : MPEG Video
Format version : Version 2
Format profile : Main@Main
Format settings, BVOP : Yes
Format settings, Matrix : Custom
Format settings, GOP : M=3, N=12
Duration : 23mn 16s
Bit rate mode : Variable
Bit rate : 5 646 Kbps
Maximum bit rate : 8 200 Kbps
Width : 720 pixels
Height : 576 pixels
Display aspect ratio : 4:3
Frame rate : 25.000 fps
Standard : PAL
Color space : YUV
Chroma subsampling : 4:2:0
Bit depth : 8 bits
Scan type : Interlaced
Scan order : Top Field First
Compression mode : Lossy
Bits/(Pixel*Frame) : 0.545
Stream size : 940 MiB (92%)
Audio #1
ID : 189 (0xBD)-128 (0x80)
Format : AC-3
Format/Info : Audio Coding 3
Mode extension : CM (complete main)
Format settings, Endianness : Big
Muxing mode : DVD-Video
Duration : 23mn 15s
Bit rate mode : Constant
Bit rate : 192 Kbps
Channel(s) : 2 channels
Channel positions : Front: L R
Sampling rate : 48.0 KHz
Bit depth : 16 bits
Compression mode : Lossy
Delay relative to video : -80ms
Stream size : 32.0 MiB (3%)
Audio #2
ID : 189 (0xBD)-129 (0x81)
Format : AC-3
Format/Info : Audio Coding 3
Mode extension : CM (complete main)
Format settings, Endianness : Big
Muxing mode : DVD-Video
Duration : 23mn 15s
Bit rate mode : Constant
Bit rate : 192 Kbps
Channel(s) : 2 channels
Channel positions : Front: L R
Sampling rate : 48.0 KHz
Bit depth : 16 bits
Compression mode : Lossy
Delay relative to video : -80ms
Stream size : 32.0 MiB (3%)
Text
ID : 189 (0xBD)-32 (0x20)
Format : RLE
Format/Info : Run-length encoding
Muxing mode : DVD-Video
Menu

Обложка

Скриншоты меню


_________________
Показать сообщения:    

Текущее время: Сегодня 16:25

Часовой пояс: GMT



Вы не можете начинать темы
Вы не можете отвечать на сообщения
Вы не можете редактировать свои сообщения
Вы не можете удалять свои сообщения
Вы не можете голосовать в опросах
Вы не можете прикреплять файлы к сообщениям
Вы не можете скачивать файлы
Наши партнеры: интернет магазин Ивановского трикотажа textilla.ru