Важное объявление!
У Нас Все раздачи мультитрекерные, при нуле пиров в релизах, можете смело вставать на закачку!
Статистика раздачи
Размер:     |    Зарегистрирован:     |    Скачан:     |   
Нет
 
     
 
 
Автор Сообщение

HUNTER

Стаж:
5 лет
Сообщений:
67910

Репутация: 101

[+] [-]
Вне форума [Профиль] [ЛС]

Заказ на киллера / Reich-
Страна: Польша
Студия: TVN, Vanar Co.
Жанр: Боевик, драма, криминал
Год выпуска: 2001
Продолжительность: 01:29:08-Перевод: Профессиональный (многоголосый закадровый) [отсюда спасибо ssv69]
Cубтитры: нет
Оригинальная аудиодорожка: польский-Режиссер: Владислав Пасиковский / Wladyslaw Pasikowski-В ролях: Богуслав Линда, Мирослав Бака, Александра Неспелак, Кшиштоф Печиньский, Марек Цихуцкий, Януш Хабёр, Артур Дзюрман, Александр Высоцки-Описание: Они — профессионалы. Двое закаленных польских гангстеров, которые знают, когда нажать на спусковой крючок. От запаха крови у них не кружится голова. Именно поэтому их немецкий работодатель поручает Алексу и Андре самую опасную и самую грязную работу. Но их немецкий контракт закончен: двум закадычным друзьям пора возвращаться в родную Польшу. Речь идет не о заслуженном отдыхе и свидании с семьей: на родине им снова придется взяться за пистолеты. Даже юные белокурые красавицы и ночная жизнь не могут отвлечь их от тяжких раздумий. Шеф сказал, что в их ряды затесался предатель… Им может оказаться тот, с кем они работали не один год…-Доп. информация: за исходный DVD9 спасибо edus67
Русская звуковая дорожка включается по умолчанию, дорожки переключаются с пульта плеера!
Бонусы: дополнительные материалы включают видеоклип, трейлер, два фильма о фильме, информацию об актерах, фотогаллерею - все на польском языке
Меню: есть, язык польский, статичное, озвученное-Sample | IMDB | КиноПоиск-Тип релиза: DVD9 (Custom)
Контейнер: DVD-Video-Видео: PAL 16:9 (720x576) VBR Auto Letterboxed
Аудио 1: AC3, 2/0 ch, 192Kbps, Delay 0 mSec [Russian_MVO]
Аудио 2: AC3, 3/2+LFE ch, 448Kbps, Delay 0 mSec [Original_Pol]-Релиз группы: -Используемое ПО
1. Eac3To - pcm - wav;

2. Minnetonka Audio Software - wav - ac3;

3. PgcDemux - разборка оригинального DVD;
4. MuxMan - сборка DVD;
5. DVDReMake Pro - финальный проект.

DVDInfo
Title:
Size: 7.03 Gb ( 7 374 950 KBytes ) - DVD-9
Enabled regions: 1, 2, 3, 4, 5, 6, 7, 8
VTS_01 :
Play Length: 01:29:08
Video: PAL 16:9 (720x576) VBR, Auto Letterboxed
Audio:
Russian (Dolby AC3, 2 ch)
Polish (Dolby AC3, 6 ch)
VTS_02 :
Play Length: 00:03:51+00:12:24+00:19:55+00:01:24
Video: PAL 4:3 (720x576) VBR
Audio:
Not specified (Dolby AC3, 2 ch)
Menu Video:
NTSC 4:3 (720x480) VBR
Auto Pan&Scan, Auto Letterboxed
Menu Language Unit :
Angle menu
Root Menu
MediaInfo
General
Complete name : D:\Мои релизы\Reich [DVD9]\VIDEO_TS\VIDEO_TS.BUP
Format : DVD Video
Format profile : Menu
File size : 6.00 KiB
Video
ID : 224 (0xE0)
Format : MPEG Video
Format version : Version 1
Bit rate mode : Variable
Width : 720 pixels
Height : 480 pixels
Display aspect ratio : 4:3
Frame rate : 29.970 fps
Standard : NTSC
Compression mode : Lossy
General
Complete name : D:\Мои релизы\Reich [DVD9]\VIDEO_TS\VIDEO_TS.IFO
Format : DVD Video
Format profile : Menu
File size : 6.00 KiB
Video
ID : 224 (0xE0)
Format : MPEG Video
Format version : Version 1
Bit rate mode : Variable
Width : 720 pixels
Height : 480 pixels
Display aspect ratio : 4:3
Frame rate : 29.970 fps
Standard : NTSC
Compression mode : Lossy
General
Complete name : D:\Мои релизы\Reich [DVD9]\VIDEO_TS\VTS_01_0.BUP
Format : DVD Video
Format profile : Program
File size : 76.0 KiB
Duration : 1h 29mn
Overall bit rate : 116 bps
Video
ID : 224 (0xE0)
Format : MPEG Video
Format version : Version 2
Duration : 1h 29mn
Bit rate mode : Variable
Width : 720 pixels
Height : 576 pixels
Display aspect ratio : 16:9
Frame rate : 25.000 fps
Standard : PAL
Compression mode : Lossy
Audio #1
ID : 128 (0x80)
Format : AC-3
Format/Info : Audio Coding 3
Duration : 1h 29mn
Channel(s) : 2 channels
Sampling rate : 48.0 KHz
Compression mode : Lossy
Language : Russian
Audio #2
ID : 129 (0x81)
Format : AC-3
Format/Info : Audio Coding 3
Duration : 1h 29mn
Channel(s) : 6 channels
Sampling rate : 48.0 KHz
Compression mode : Lossy
Language : Polish
Menu
Duration : 1h 29mn
00:00:00.000 : Chapter 1
00:00:26.520 : Chapter 2
00:06:59.640 : Chapter 3
00:19:18.560 : Chapter 4
00:20:56.320 : Chapter 5
00:27:54.400 : Chapter 6
00:30:44.440 : Chapter 7
00:40:03.960 : Chapter 8
00:51:11.640 : Chapter 9
01:07:07.400 : Chapter 10
01:10:30.720 : Chapter 11
01:17:40.240 : Chapter 12
01:25:51.640 : Chapter 13
List (Audio) : 0 / 1
General
Complete name : D:\Мои релизы\Reich [DVD9]\VIDEO_TS\VTS_01_0.IFO
Format : DVD Video
Format profile : Program
File size : 76.0 KiB
Duration : 1h 29mn
Overall bit rate : 116 bps
Video
ID : 224 (0xE0)
Format : MPEG Video
Format version : Version 2
Duration : 1h 29mn
Bit rate mode : Variable
Width : 720 pixels
Height : 576 pixels
Display aspect ratio : 16:9
Frame rate : 25.000 fps
Standard : PAL
Compression mode : Lossy
Audio #1
ID : 128 (0x80)
Format : AC-3
Format/Info : Audio Coding 3
Duration : 1h 29mn
Channel(s) : 2 channels
Sampling rate : 48.0 KHz
Compression mode : Lossy
Language : Russian
Audio #2
ID : 129 (0x81)
Format : AC-3
Format/Info : Audio Coding 3
Duration : 1h 29mn
Channel(s) : 6 channels
Sampling rate : 48.0 KHz
Compression mode : Lossy
Language : Polish
Menu
Duration : 1h 29mn
00:00:00.000 : Chapter 1
00:00:26.520 : Chapter 2
00:06:59.640 : Chapter 3
00:19:18.560 : Chapter 4
00:20:56.320 : Chapter 5
00:27:54.400 : Chapter 6
00:30:44.440 : Chapter 7
00:40:03.960 : Chapter 8
00:51:11.640 : Chapter 9
01:07:07.400 : Chapter 10
01:10:30.720 : Chapter 11
01:17:40.240 : Chapter 12
01:25:51.640 : Chapter 13
List (Audio) : 0 / 1
General
Complete name : D:\Мои релизы\Reich [DVD9]\VIDEO_TS\VTS_01_0.VOB
Format : MPEG-PS
File size : 977 MiB
Overall bit rate : 0
Video
ID : 224 (0xE0)
Format : MPEG Video
Format version : Version 2
Format profile : Main@Main
Format settings, BVOP : Yes
Format settings, Matrix : Default
Duration : 1mn 2s
Bit rate mode : Constant
Width : 720 pixels
Height : 576 pixels
Display aspect ratio : 4:3
Frame rate : 25.000 fps
Standard : PAL
Color space : YUV
Chroma subsampling : 4:2:0
Bit depth : 8 bits
Compression mode : Lossy
Audio
ID : 128 (0x80)
Format : AC-3
Format/Info : Audio Coding 3
Mode extension : CM (complete main)
Bit rate mode : Constant
Bit rate : 224 Kbps
Channel(s) : 2 channels
Channel positions : Front: L R
Sampling rate : 48.0 KHz
Bit depth : 16 bits
Compression mode : Lossy
Video delay : -157ms
Stream size : 470 ?iB
Text
ID : 32 (0x20)
Format : RLE
Format/Info : Run-length encoding
Video delay : -157ms
Menu
General
Complete name : D:\Мои релизы\Reich [DVD9]\VIDEO_TS\VTS_01_1.VOB
Format : MPEG-PS
File size : 1 024 MiB
Duration : 20mn 26s
Overall bit rate : 7 004 Kbps
Video
ID : 224 (0xE0)
Format : MPEG Video
Format version : Version 2
Format profile : Main@Main
Format settings, BVOP : Yes
Format settings, Matrix : Default
Format settings, GOP : M=3, N=13
Duration : 20mn 26s
Bit rate mode : Variable
Bit rate : 6 225 Kbps
Nominal bit rate : 8 200 Kbps
Width : 720 pixels
Height : 576 pixels
Display aspect ratio : 2.35:1
Frame rate : 25.000 fps
Standard : PAL
Color space : YUV
Chroma subsampling : 4:2:0
Bit depth : 8 bits
Scan type : Interlaced
Scan order : Top Field First
Compression mode : Lossy
Bits/(Pixel*Frame) : 0.600
Stream size : 910 MiB (89%)
Audio #1
ID : 128 (0x80)
Format : AC-3
Format/Info : Audio Coding 3
Mode extension : CM (complete main)
Duration : 20mn 26s
Bit rate mode : Constant
Bit rate : 192 Kbps
Channel(s) : 2 channels
Channel positions : Front: L R
Sampling rate : 48.0 KHz
Bit depth : 16 bits
Compression mode : Lossy
Stream size : 28.1 MiB (3%)
Audio #2
ID : 129 (0x81)
Format : AC-3
Format/Info : Audio Coding 3
Mode extension : CM (complete main)
Duration : 20mn 26s
Bit rate mode : Constant
Bit rate : 448 Kbps
Channel(s) : 6 channels
Channel positions : Front: L C R, Side: L R, LFE
Sampling rate : 48.0 KHz
Bit depth : 16 bits
Compression mode : Lossy
Stream size : 65.5 MiB (6%)
Menu
General
Complete name : D:\Мои релизы\Reich [DVD9]\VIDEO_TS\VTS_01_2.VOB
Format : MPEG-PS
File size : 1 024 MiB
Duration : 20mn 23s
Overall bit rate : 7 021 Kbps
Video
ID : 224 (0xE0)
Format : MPEG Video
Format version : Version 2
Format profile : Main@Main
Format settings, BVOP : Yes
Format settings, Matrix : Default
Format settings, GOP : M=3, N=13
Duration : 20mn 23s
Bit rate mode : Variable
Bit rate : 6 241 Kbps
Nominal bit rate : 8 200 Kbps
Width : 720 pixels
Height : 576 pixels
Display aspect ratio : 2.35:1
Frame rate : 25.000 fps
Standard : PAL
Color space : YUV
Chroma subsampling : 4:2:0
Bit depth : 8 bits
Scan type : Interlaced
Scan order : Top Field First
Compression mode : Lossy
Bits/(Pixel*Frame) : 0.602
Stream size : 910 MiB (89%)
Audio #1
ID : 128 (0x80)
Format : AC-3
Format/Info : Audio Coding 3
Mode extension : CM (complete main)
Duration : 20mn 23s
Bit rate mode : Constant
Bit rate : 192 Kbps
Channel(s) : 2 channels
Channel positions : Front: L R
Sampling rate : 48.0 KHz
Bit depth : 16 bits
Compression mode : Lossy
Video delay : -440ms
Stream size : 28.0 MiB (3%)
Audio #2
ID : 129 (0x81)
Format : AC-3
Format/Info : Audio Coding 3
Mode extension : CM (complete main)
Duration : 20mn 23s
Bit rate mode : Constant
Bit rate : 448 Kbps
Channel(s) : 6 channels
Channel positions : Front: L C R, Side: L R, LFE
Sampling rate : 48.0 KHz
Bit depth : 16 bits
Compression mode : Lossy
Video delay : -504ms
Stream size : 65.3 MiB (6%)
Menu
General
Complete name : D:\Мои релизы\Reich [DVD9]\VIDEO_TS\VTS_01_3.VOB
Format : MPEG-PS
File size : 1 024 MiB
Duration : 21mn 32s
Overall bit rate : 6 647 Kbps
Video
ID : 224 (0xE0)
Format : MPEG Video
Format version : Version 2
Format profile : Main@Main
Format settings, BVOP : Yes
Format settings, Matrix : Default
Format settings, GOP : M=3, N=13
Duration : 21mn 31s
Bit rate mode : Variable
Bit rate : 5 875 Kbps
Nominal bit rate : 8 200 Kbps
Width : 720 pixels
Height : 576 pixels
Display aspect ratio : 2.35:1
Frame rate : 25.000 fps
Standard : PAL
Color space : YUV
Chroma subsampling : 4:2:0
Bit depth : 8 bits
Scan type : Interlaced
Scan order : Top Field First
Compression mode : Lossy
Bits/(Pixel*Frame) : 0.567
Stream size : 905 MiB (88%)
Audio #1
ID : 128 (0x80)
Format : AC-3
Format/Info : Audio Coding 3
Mode extension : CM (complete main)
Duration : 21mn 32s
Bit rate mode : Constant
Bit rate : 192 Kbps
Channel(s) : 2 channels
Channel positions : Front: L R
Sampling rate : 48.0 KHz
Bit depth : 16 bits
Compression mode : Lossy
Video delay : -544ms
Stream size : 29.6 MiB (3%)
Audio #2
ID : 129 (0x81)
Format : AC-3
Format/Info : Audio Coding 3
Mode extension : CM (complete main)
Duration : 21mn 32s
Bit rate mode : Constant
Bit rate : 448 Kbps
Channel(s) : 6 channels
Channel positions : Front: L C R, Side: L R, LFE
Sampling rate : 48.0 KHz
Bit depth : 16 bits
Compression mode : Lossy
Video delay : -640ms
Stream size : 69.0 MiB (7%)
Menu
General
Complete name : D:\Мои релизы\Reich [DVD9]\VIDEO_TS\VTS_01_4.VOB
Format : MPEG-PS
File size : 1 024 MiB
Duration : 20mn 14s
Overall bit rate : 7 072 Kbps
Video
ID : 224 (0xE0)
Format : MPEG Video
Format version : Version 2
Format profile : Main@Main
Format settings, BVOP : Yes
Format settings, Matrix : Default
Format settings, GOP : M=3, N=13
Duration : 20mn 14s
Bit rate mode : Variable
Bit rate : 6 292 Kbps
Nominal bit rate : 8 200 Kbps
Width : 720 pixels
Height : 576 pixels
Display aspect ratio : 2.35:1
Frame rate : 25.000 fps
Standard : PAL
Color space : YUV
Chroma subsampling : 4:2:0
Bit depth : 8 bits
Scan type : Interlaced
Scan order : Top Field First
Compression mode : Lossy
Bits/(Pixel*Frame) : 0.607
Stream size : 911 MiB (89%)
Audio #1
ID : 128 (0x80)
Format : AC-3
Format/Info : Audio Coding 3
Mode extension : CM (complete main)
Duration : 20mn 14s
Bit rate mode : Constant
Bit rate : 192 Kbps
Channel(s) : 2 channels
Channel positions : Front: L R
Sampling rate : 48.0 KHz
Bit depth : 16 bits
Compression mode : Lossy
Video delay : -488ms
Stream size : 27.8 MiB (3%)
Audio #2
ID : 129 (0x81)
Format : AC-3
Format/Info : Audio Coding 3
Mode extension : CM (complete main)
Duration : 20mn 14s
Bit rate mode : Constant
Bit rate : 448 Kbps
Channel(s) : 6 channels
Channel positions : Front: L C R, Side: L R, LFE
Sampling rate : 48.0 KHz
Bit depth : 16 bits
Compression mode : Lossy
Video delay : -552ms
Stream size : 64.9 MiB (6%)
Menu
General
Complete name : D:\Мои релизы\Reich [DVD9]\VIDEO_TS\VTS_01_5.VOB
Format : MPEG-PS
File size : 342 MiB
Duration : 6mn 31s
Overall bit rate : 7 329 Kbps
Video
ID : 224 (0xE0)
Format : MPEG Video
Format version : Version 2
Format profile : Main@Main
Format settings, BVOP : Yes
Format settings, Matrix : Default
Format settings, GOP : M=3, N=13
Duration : 6mn 30s
Bit rate mode : Variable
Bit rate : 6 543 Kbps
Nominal bit rate : 8 200 Kbps
Width : 720 pixels
Height : 576 pixels
Display aspect ratio : 2.35:1
Frame rate : 25.000 fps
Standard : PAL
Color space : YUV
Chroma subsampling : 4:2:0
Bit depth : 8 bits
Scan type : Interlaced
Scan order : Top Field First
Compression mode : Lossy
Bits/(Pixel*Frame) : 0.631
Stream size : 305 MiB (89%)
Audio #1
ID : 128 (0x80)
Format : AC-3
Format/Info : Audio Coding 3
Mode extension : CM (complete main)
Duration : 6mn 31s
Bit rate mode : Constant
Bit rate : 192 Kbps
Channel(s) : 2 channels
Channel positions : Front: L R
Sampling rate : 48.0 KHz
Bit depth : 16 bits
Compression mode : Lossy
Video delay : -648ms
Stream size : 8.96 MiB (3%)
Audio #2
ID : 129 (0x81)
Format : AC-3
Format/Info : Audio Coding 3
Mode extension : CM (complete main)
Duration : 6mn 31s
Bit rate mode : Constant
Bit rate : 448 Kbps
Channel(s) : 6 channels
Channel positions : Front: L C R, Side: L R, LFE
Sampling rate : 48.0 KHz
Bit depth : 16 bits
Compression mode : Lossy
Video delay : -712ms
Stream size : 20.9 MiB (6%)
Menu
General
Complete name : D:\Мои релизы\Reich [DVD9]\VIDEO_TS\VTS_02_0.BUP
Format : DVD Video
Format profile : Program
File size : 58.0 KiB
Duration : 12mn 24s
Overall bit rate : 638 bps
Video
ID : 224 (0xE0)
Format : MPEG Video
Format version : Version 2
Duration : 12mn 24s
Bit rate mode : Variable
Width : 720 pixels
Height : 576 pixels
Display aspect ratio : 4:3
Frame rate : 25.000 fps
Standard : PAL
Compression mode : Lossy
Audio
ID : 128 (0x80)
Format : AC-3
Format/Info : Audio Coding 3
Duration : 12mn 24s
Channel(s) : 2 channels
Sampling rate : 48.0 KHz
Compression mode : Lossy
Menu #1
Duration : 3mn 51s
00:00:00.000 : Chapter 1
List (Audio) : 0
Menu #2
Duration : 12mn 24s
00:00:00.000 : Chapter 1
List (Audio) : 0
General
Complete name : D:\Мои релизы\Reich [DVD9]\VIDEO_TS\VTS_02_0.IFO
Format : DVD Video
Format profile : Program
File size : 58.0 KiB
Duration : 12mn 24s
Overall bit rate : 638 bps
Video
ID : 224 (0xE0)
Format : MPEG Video
Format version : Version 2
Duration : 12mn 24s
Bit rate mode : Variable
Width : 720 pixels
Height : 576 pixels
Display aspect ratio : 4:3
Frame rate : 25.000 fps
Standard : PAL
Compression mode : Lossy
Audio
ID : 128 (0x80)
Format : AC-3
Format/Info : Audio Coding 3
Duration : 12mn 24s
Channel(s) : 2 channels
Sampling rate : 48.0 KHz
Compression mode : Lossy
Menu #1
Duration : 3mn 51s
00:00:00.000 : Chapter 1
List (Audio) : 0
Menu #2
Duration : 12mn 24s
00:00:00.000 : Chapter 1
List (Audio) : 0
General
Complete name : D:\Мои релизы\Reich [DVD9]\VIDEO_TS\VTS_02_0.VOB
Format : MPEG-PS
File size : 30.4 MiB
Overall bit rate : 0
Video
ID : 224 (0xE0)
Format : MPEG Video
Format version : Version 2
Format profile : Main@Main
Format settings, BVOP : Yes
Format settings, Matrix : Default
Duration : 926ms
Bit rate mode : Constant
Width : 720 pixels
Height : 576 pixels
Display aspect ratio : 4:3
Frame rate : 25.000 fps
Standard : PAL
Color space : YUV
Chroma subsampling : 4:2:0
Bit depth : 8 bits
Compression mode : Lossy
Audio
ID : 128 (0x80)
Format : AC-3
Format/Info : Audio Coding 3
Mode extension : CM (complete main)
Bit rate mode : Constant
Bit rate : 224 Kbps
Channel(s) : 2 channels
Channel positions : Front: L R
Sampling rate : 48.0 KHz
Bit depth : 16 bits
Compression mode : Lossy
Video delay : 37ms
Stream size : 470 ?iB
Text
ID : 32 (0x20)
Format : RLE
Format/Info : Run-length encoding
Duration : 138ms
Menu
General
Complete name : D:\Мои релизы\Reich [DVD9]\VIDEO_TS\VTS_02_1.VOB
Format : MPEG-PS
File size : 1 024 MiB
Duration : 6mn 25s
Overall bit rate : 22.3 Mbps
Video
ID : 224 (0xE0)
Format : MPEG Video
Format version : Version 2
Format profile : Main@Main
Format settings, BVOP : Yes
Format settings, Matrix : Default
Format settings, GOP : M=3, N=13
Duration : 6mn 25s
Bit rate mode : Variable
Bit rate : 21.7 Mbps
Nominal bit rate : 8 500 Kbps
Width : 720 pixels
Height : 576 pixels
Display aspect ratio : 4:3
Frame rate : 25.000 fps
Standard : PAL
Color space : YUV
Chroma subsampling : 4:2:0
Bit depth : 8 bits
Scan type : Interlaced
Scan order : Top Field First
Compression mode : Lossy
Bits/(Pixel*Frame) : 2.089
Stream size : 995 MiB (97%)
Audio
ID : 128 (0x80)
Format : AC-3
Format/Info : Audio Coding 3
Mode extension : CM (complete main)
Duration : 6mn 25s
Bit rate mode : Constant
Bit rate : 192 Kbps
Channel(s) : 2 channels
Channel positions : Front: L R
Sampling rate : 48.0 KHz
Bit depth : 16 bits
Compression mode : Lossy
Stream size : 8.82 MiB (1%)
Menu
General
Complete name : D:\Мои релизы\Reich [DVD9]\VIDEO_TS\VTS_02_2.VOB
Format : MPEG-PS
File size : 732 MiB
Overall bit rate : 0
Video
ID : 224 (0xE0)
Format : MPEG Video
Format version : Version 2
Format profile : Main@Main
Format settings, BVOP : Yes
Format settings, Matrix : Default
Format settings, GOP : M=3, N=13
Bit rate mode : Variable
Nominal bit rate : 8 500 Kbps
Width : 720 pixels
Height : 576 pixels
Display aspect ratio : 4:3
Frame rate : 25.000 fps
Standard : PAL
Color space : YUV
Chroma subsampling : 4:2:0
Bit depth : 8 bits
Scan type : Interlaced
Scan order : Top Field First
Compression mode : Lossy
Bits/(Pixel*Frame) : 0.820
Audio
ID : 128 (0x80)
Format : AC-3
Format/Info : Audio Coding 3
Mode extension : CM (complete main)
Duration : -5mn 1s
Bit rate mode : Constant
Bit rate : 192 Kbps
Channel(s) : 2 channels
Channel positions : Front: L R
Sampling rate : 48.0 KHz
Bit depth : 16 bits
Compression mode : Lossy
Video delay : -528ms
Stream size : 2.05 ?iB
Menu
Скриншоты менюСкриншотыСкриншоты доп. материалов

_________________
Показать сообщения:    

Текущее время: Сегодня 06:48

Часовой пояс: GMT



Вы не можете начинать темы
Вы не можете отвечать на сообщения
Вы не можете редактировать свои сообщения
Вы не можете удалять свои сообщения
Вы не можете голосовать в опросах
Вы не можете прикреплять файлы к сообщениям
Вы не можете скачивать файлы