Важное объявление!
У Нас Все раздачи мультитрекерные, при нуле пиров в релизах, можете смело вставать на закачку!
 
Автор Сообщение

HUNTER

Стаж:
4 года 5 месяцев
Сообщений:
60857

Репутация: 101

[+] [-]
Вне форума [Профиль] [ЛС]

Загнанных лошадей пристреливают, не правда ли? / They Shoot Horses, Don't They?
Страна: США
Жанр: Драма
Год выпуска: 1969
Продолжительность: 01:54:58-Перевод: Профессиональный (двухголосый закадровый) Культура
Cубтитры: нет
Оригинальная аудиодорожка: английский-Режиссер: Сидней Поллак / Sydney Pollack
В ролях: Джейн Фонда, Майкл Саразин, Сюзанна Йорк, Гиг Янг, Ред Баттонс, Бонни Беделиа, Майкл Конрад, Брюс Дерн, Аль Льюис, Роберт Филдс, Северн Дарден, Эллин Энн МакЛери, Мэдж Кеннеди, Жаклин Хайд, Феличе Орланди, Арт Метрано, Гэйл Биллингс, Линн Уиллис, Максин Грин, Мэри Грегори, Роберт Данлэп, Пол Манти, Тим Херберт, Том МакФедден
Описание: Америка в тяжелые годы Великой депрессии. Всюду безработица, бедность, люди уезжают из родных мест в поиска лучшей доли на чужбине и берутся за любую работу, чтобы заработать на кусок хлеба и крышу над головой. Поэтому не удивительно, что весьма сомнительный «крупнейший в мире» танцевальный марафон с призом в 1500 долларов легко собрал мрачном ангаре на побережье несколько десятков участников со всей страны. Молодой ковбой и седой моряк, беременная женщина и унылый фермер, циничная девушка «с прошлым» Глория и немолодая бывшая актриса без будущего… Все они такие разные, но каждый готов на всё ради выигрыша. В изнеможении они танцуют сутками напролет — с перерывами только в 10 минут. От усталости, боли и бессонницы прежде азартные и нарядные, участники марафона постепенно теряют чувство реальности и ощущение собственного «Я». Они, как загнанные лошади, «на последнем дыхании» упорно стремятся к победе, не вспоминая о выбывших из гонки. Вот только — хватит ли сил даже у победителей, добравшихся до заветного финиша, жить после «финиша» дальше. Ведь загнанных лошадей пристреливают, не правда ли?
-Сэмпл: https://yadi.sk/i/-7PJtoQpqkUDe-Тип релиза: HDTVRip 720p
Контейнер: MKV-Видео: AVC, 1280x544 (2.35:1), 4 346 kbps, 25.000 fps
Аудио 1: AC-3 / 2.0 ch / 48 kHz / 16 bit / 256 kbps - DVO [Культура].
Аудио 2: AC-3 / 2.0 ch / 48 kHz / 16 bit / 192 kbps - Original.

MediaInfo

G:\Фильмы\Посмотренное\They Shoot Horses, Don't They. HDTVRip. 720p..mkv
General
Unique ID : 208896039772569346923068569105628218232 (0x9D27E9F0835F8B5B8A2384EEA2554378)
Complete name : G:\Фильмы\Посмотренное\They Shoot Horses, Don't They. HDTVRip. 720p..mkv
Format : Matroska
Format version : Version 4 / Version 2
File size : 3.85 GiB
Duration : 1h 54mn
Overall bit rate : 4 795 Kbps
Encoded date : UTC 2016-04-05 10:13:20
Writing application : mkvmerge v6.6.0 ('The Edge Of The In Between') built on Dec 1 2013 17:55:00
Writing library : libebml v1.3.0 + libmatroska v1.4.1
Video #1
ID : 1
Format : AVC
Format/Info : Advanced Video Codec
Format profile : High@L4.1
Format settings, CABAC : Yes
Format settings, ReFrames : 9 frames
Codec ID : V_MPEG4/ISO/AVC
Duration : 1h 54mn
Bit rate : 4 346 Kbps
Width : 1 280 pixels
Height : 544 pixels
Display aspect ratio : 2.35:1
Frame rate : 25.000 fps
Color space : YUV
Chroma subsampling : 4:2:0
Bit depth : 8 bits
Scan type : Progressive
Bits/(Pixel*Frame) : 0.250
Stream size : 3.41 GiB (89%)
Writing library : x264 core 92 r1510 33d382a
Encoding settings : cabac=1 / ref=9 / deblock=1:-1:-1 / analyse=0x3:0x133 / me=umh / subme=8 / psy=1 / psy_rd=1.10:0.00 / mixed_ref=1 / me_range=24 / chroma_me=1 / trellis=2 / 8x8dct=1 / cqm=0 / deadzone=21,11 / fast_pskip=0 / chroma_qp_offset=-2 / threads=6 / sliced_threads=0 / nr=0 / decimate=1 / interlaced=0 / constrained_intra=0 / bframes=6 / b_pyramid=2 / b_adapt=2 / b_bias=0 / direct=3 / wpredb=1 / wpredp=2 / keyint=250 / keyint_min=25 / scenecut=40 / intra_refresh=0 / rc_lookahead=50 / rc=2pass / mbtree=1 / bitrate=4346 / ratetol=1.0 / qcomp=0.60 / qpmin=12 / qpmax=51 / qpstep=4 / cplxblur=20.0 / qblur=0.5 / ip_ratio=1.40 / aq=1:1.00
Language : English
Default : No
Forced : No
Audio #2
ID : 2
Format : AC-3
Format/Info : Audio Coding 3
Mode extension : CM (complete main)
Format settings, Endianness : Big
Codec ID : A_AC3
Duration : 1h 54mn
Bit rate mode : Constant
Bit rate : 256 Kbps
Channel(s) : 2 channels
Channel positions : Front: L R
Sampling rate : 48.0 KHz
Bit depth : 16 bits
Compression mode : Lossy
Stream size : 211 MiB (5%)
Title : AC-3 / 2.0 ch / 48 kHz / 16 bit / 256 kbps - DVO [Культура].
Language : Russian
Default : Yes
Forced : No
Audio #3
ID : 3
Format : AC-3
Format/Info : Audio Coding 3
Mode extension : CM (complete main)
Format settings, Endianness : Big
Codec ID : A_AC3
Duration : 1h 54mn
Bit rate mode : Constant
Bit rate : 192 Kbps
Channel(s) : 2 channels
Channel positions : Front: L R
Sampling rate : 48.0 KHz
Bit depth : 16 bits
Compression mode : Lossy
Stream size : 158 MiB (4%)
Title : AC-3 / 2.0 ch / 48 kHz / 16 bit / 192 kbps - Original.
Language : English
Default : No
Forced : No

Скриншоты

Цитата:
  • За дорожку Культуры большое спасибо ItarTass.

  • _________________
    Показать сообщения:    

    Текущее время: Сегодня 05:04

    Часовой пояс: GMT



    Вы не можете начинать темы
    Вы не можете отвечать на сообщения
    Вы не можете редактировать свои сообщения
    Вы не можете удалять свои сообщения
    Вы не можете голосовать в опросах
    Вы не можете прикреплять файлы к сообщениям
    Вы не можете скачивать файлы
    Наши партнеры: интернет магазин Ивановского трикотажа textilla.ru