Важное объявление!
У Нас Все раздачи мультитрекерные, при нуле пиров в релизах, можете смело вставать на закачку!
Статистика раздачи
Размер:     |    Зарегистрирован:     |    Скачан:     |   
Нет
 
     
 
 
Автор Сообщение

HUNTER

Стаж:
5 лет
Сообщений:
68004

Репутация: 101

[+] [-]
Вне форума [Профиль] [ЛС]

Загадка дьявола / Akuma no Riddle-
Страна: Япония
Год выпуска: 2014 г.
Жанр: приключения
Тип: TV
Продолжительность: >12 эп. по 25 мин
Режиссер: Кусакава Кэйдзё
Студия: Studio Barcelona-Описание: Главная героиня, Токаку Адзума, обучается на наемного убийцу и является одной из лучших учениц. Ее учитель Кайба выбирает девушку в качестве представителя своей школы, который должен перевестись в школу Мёдзё и обучаться в группе Курогуми. Тем не менее, сам Кайба считает Токаку худщей ученицей. Группа Курогуми в которой предстоит учиться девушке — особый класс, формируемый на небольшое время. В последний раз он не просуществовал и двух недель. В этом классе учится 12 убийц, а также их единственная цель, Хару Итиносэ, уничтожение которой и является целью формирования Курогуми. При этом в классе действуют три правила. Первое: тот кто сможет убить Хару, получит любую награду которую пожелает. Второе: средства не имеют значения, но вовлекать кого-либо кроме членов группы Куругуми нельзя. Третье: убийца провалившийся или нарушивший второе правило будет исключен.
Познакомившись с Хару, Токаку начинает испытывать к ней непонятные для себя чувства. Кроме того, Хару оказывается способна правильно ответить на вопросы Кайбы, на которые не смогла ответить сама Токаку. В результате Токаку спасает Хару от первого покушения и узнав о ее печальном прошлом, решает стать ее защитницей.-Качество: HDTVRip
Тип релиза: Без хардсаба
Формат видео: mp4
Релиз/Автор рипа: Zero-Raws-Видео: H264, 1 293 Kbps, 1280x720, 23.976 fps, 8 bit
Аудио: JAP, AAC, 189 kbps, 48000 Hz, 2ch
Субтитры: ASS, внешние; Язык субтитров русский; Перевод команд: Mikuru Group
L Перевод: Lina, Mister Malkin
Редактура: Mister Malkin

Подробные тех. данные

GeneralComplete name : D:\[Zero-Raws] Akuma no Riddle - 01 (MBS 1280x720 x264 AAC).mp4Format : MPEG-4Format profile : Base MediaCodec ID : isomFile size : 260 MiBDuration : 24mn 26sOverall bit rate mode : VariableOverall bit rate : 1 486 KbpsEncoded date : UTC 2014-04-05 02:17:28Tagged date : UTC 2014-04-05 02:17:28
VideoID : 1Format : AVCFormat/Info : Advanced Video CodecFormat profile : High@L3.1Format settings, CABAC : YesFormat settings, ReFrames : 4 framesCodec ID : avc1Codec ID/Info : Advanced Video CodingDuration : 24mn 26sBit rate : 1 293 KbpsMaximum bit rate : 8 401 KbpsWidth : 1 280 pixelsHeight : 720 pixelsDisplay aspect ratio : 16:9Frame rate mode : ConstantFrame rate : 23.976 fpsColor space : YUVChroma subsampling : 4:2:0Bit depth : 8 bitsScan type : ProgressiveBits/(Pixel*Frame) : 0.059Stream size : 226 MiB (87%)Writing library : x264 core 133 r2334 a3ac64bEncoding settings : cabac=1 / ref=3 / deblock=1:0:0 / analyse=0x3:0x113 / me=hex / subme=7 / psy=1 / psy_rd=1.00:0.00 / mixed_ref=1 / me_range=16 / chroma_me=1 / trellis=1 / 8x8dct=1 / cqm=0 / deadzone=21,11 / fast_pskip=1 / chroma_qp_offset=-2 / threads=12 / lookahead_threads=2 / sliced_threads=0 / nr=0 / decimate=1 / interlaced=0 / bluray_compat=0 / constrained_intra=0 / bframes=3 / b_pyramid=2 / b_adapt=1 / b_bias=0 / direct=1 / weightb=1 / open_gop=0 / weightp=2 / keyint=250 / keyint_min=23 / scenecut=40 / intra_refresh=0 / rc_lookahead=40 / rc=crf / mbtree=1 / crf=19.5 / qcomp=0.60 / qpmin=0 / qpmax=69 / qpstep=4 / ip_ratio=1.40 / aq=1:1.00Encoded date : UTC 2014-04-05 01:57:34Tagged date : UTC 2014-04-05 02:17:29
AudioID : 2Format : AACFormat/Info : Advanced Audio CodecFormat profile : LCCodec ID : 40Duration : 24mn 26sBit rate mode : VariableBit rate : 192 KbpsMaximum bit rate : 194 KbpsChannel(s) : 2 channelsChannel positions : Front: L RSampling rate : 48.0 KHzCompression mode : LossyStream size : 33.0 MiB (13%)Title : aac#trackID=1:lang=Japanese@GPAC0.5.1-DEV-rev4708Language : JapaneseEncoded date : UTC 2014-04-05 02:17:28Tagged date : UTC 2014-04-05 02:17:29

Список эпизодов

01 - The world is fulfilled by __

Скриншоты


_________________
Показать сообщения:    

Текущее время: Сегодня 06:45

Часовой пояс: GMT



Вы не можете начинать темы
Вы не можете отвечать на сообщения
Вы не можете редактировать свои сообщения
Вы не можете удалять свои сообщения
Вы не можете голосовать в опросах
Вы не можете прикреплять файлы к сообщениям
Вы не можете скачивать файлы