Ивановский Торрент трекер
Яндекс.Погода
 

[Цитировать]
HUNTER

Завещание Холкрофта / The Holcroft Covenant
Страна: Великобритания
Студия: Holcroft Films, Thorn EMI Screen Entertainment
Жанр: детектив, триллер
Год выпуска: 1985
Продолжительность: 01:52:40
Перевод 1: Профессиональный (многоголосый закадровый) Paramount Channel
Перевод 2: Профессиональный (двухголосый закадровый)
Cубтитры: английские
Оригинальная аудиодорожка: английский
Режиссер: Джон Франкенхаймер / John Frankenheimer
В ролях: Майкл Кейн, Энтони Эндрюс, Виктория Теннант, Лилли Пальмер, Марио Адорф, Микаэль Лонсдаль, Бернард Хептон, Рихард Мюнх, Карл Ригг, Андре Пенверн и др.
Описание: Сын высокопоставленного нациста в наше время оказывается распорядителем многомиллионного фонда. Деньги оставлены ему отцом, который под конец жизни раскаялся в своих грехах и настоял на том, чтобы сын с несколькими товарищами направил миллионы на благие дела. Но совершенно ясно, что у этого начинания оказалось много врагов. Главный герой оказывается в ловушке.
II Сэмпл II IMDB II
Доп. информация:
За исходник спасибо Тарантиныч
Первый перевод записан с т/к Paramount Channel
Тип релиза: BDRip 720p
Контейнер: MKV
Видео: AVC / 1280x690 / 1.85:1 / 23.976fps / 13500Kbps / High@L4.1
Аудио 1: AC3 / 48.0 KHz / 2ch. / 192kbps / Rus / MVO / Paramount Channel
Аудио 2: AC3 / 48.0 KHz / 2ch. / 192kbps / Rus / DVO
Аудио 3: DTS / 48.0 KHz / 2ch / 1509kbps / 16bit / Eng
Аудио 4: AC3 / 48.0 KHz / 2ch. / 256kbps / Eng / Commentary by Director John Frankenheimer
Формат субтитров: softsub (SRT)

MediaInfo

Общее
Уникальный идентификатор : 245221813291322163303131958078349078897 (0xB87C00D9CE900CF1A9F89DCBAA797171)
Полное имя : E:\!_HD\temp\The.Holcroft.Covenant.1985.BDRip.720p_by_vedigo.mkv
Формат : Matroska
Версия формата : Version 4 / Version 2
Размер файла : 12,3 Гбайт
Продолжительность : 1 ч. 52 м.
Общий поток : 15,6 Мбит/сек
Название фильма : The.Holcroft.Covenant.1985.BDRip.720p_by_vedigo
Дата кодирования : UTC 2016-10-03 02:18:37
Программа кодирования : mkvmerge v9.4.2 ('So High') 64bit
Библиотека кодирования : libebml v1.3.4 + libmatroska v1.4.5
Видео
Идентификатор : 1
Формат : AVC
Формат/Информация : Advanced Video Codec
Профиль формата : High@L4.1
Параметр CABAC формата : Да
Параметр ReFrames формата : 9 кадров
Идентификатор кодека : V_MPEG4/ISO/AVC
Продолжительность : 1 ч. 52 м.
Битрейт : 13,5 Мбит/сек
Ширина : 1280 пикселей
Высота : 690 пикселей
Соотношение сторон : 1,85:1
Режим частоты кадров : Постоянный
Частота кадров : 23,976 (24000/1001) кадра/сек
Цветовое пространство : YUV
Субдискретизация насыщенности : 4:2:0
Битовая глубина : 8 бит
Тип развёртки : Прогрессивная
Бит/(Пиксели*Кадры) : 0.638
Размер потока : 10,6 Гбайт (86%)
Заголовок : The.Holcroft.Covenant.1985.BDRip.720p_by_vedigo
Библиотека кодирования : x264 core 148 r2705 3f5ed56
Настройки программы : cabac=1 / ref=9 / deblock=1:-3:-3 / analyse=0x3:0x133 / me=umh / subme=11 / psy=1 / psy_rd=1.00:0.10 / mixed_ref=1 / me_range=48 / chroma_me=1 / trellis=2 / 8x8dct=1 / cqm=0 / deadzone=21,11 / fast_pskip=0 / chroma_qp_offset=-3 / threads=12 / lookahead_threads=2 / sliced_threads=0 / nr=0 / decimate=1 / interlaced=0 / bluray_compat=0 / constrained_intra=0 / bframes=9 / b_pyramid=2 / b_adapt=2 / b_bias=0 / direct=3 / weightb=1 / open_gop=0 / weightp=2 / keyint=250 / keyint_min=23 / scenecut=40 / intra_refresh=0 / rc_lookahead=40 / rc=2pass / mbtree=0 / bitrate=13500 / ratetol=1.0 / qcomp=0.60 / qpmin=0 / qpmax=69 / qpstep=4 / cplxblur=20.0 / qblur=0.5 / vbv_maxrate=50000 / vbv_bufsize=62500 / nal_hrd=none / filler=0 / ip_ratio=1.40 / pb_ratio=1.30 / aq=1:0.90
Default : Да
Forced : Нет
Аудио #1
Идентификатор : 2
Формат : AC-3
Формат/Информация : Audio Coding 3
Расширение режима : CM (complete main)
Параметр Endianness формата : Big
Идентификатор кодека : A_AC3
Продолжительность : 1 ч. 52 м.
Вид битрейта : Постоянный
Битрейт : 192 Кбит/сек
Каналы : 2 канала
Расположение каналов : Front: L R
Частота : 48,0 КГц
Частота кадров : 31,250 кадров/сек (1536 spf)
Метод сжатия : С потерями
Размер потока : 155 Мбайт (1%)
Заголовок : MVO @ Paramount Channel
Язык : Russian
Default : Да
Forced : Нет
Аудио #2
Идентификатор : 3
Формат : AC-3
Формат/Информация : Audio Coding 3
Расширение режима : CM (complete main)
Параметр Endianness формата : Big
Идентификатор кодека : A_AC3
Продолжительность : 1 ч. 52 м.
Вид битрейта : Постоянный
Битрейт : 192 Кбит/сек
Каналы : 2 канала
Расположение каналов : Front: L R
Частота : 48,0 КГц
Частота кадров : 31,250 кадров/сек (1536 spf)
Метод сжатия : С потерями
Размер потока : 155 Мбайт (1%)
Заголовок : DVO
Язык : Russian
Default : Нет
Forced : Нет
Аудио #3
Идентификатор : 4
Формат : DTS
Формат/Информация : Digital Theater Systems
Режим : 16
Параметр Endianness формата : Big
Идентификатор кодека : A_DTS
Продолжительность : 1 ч. 52 м.
Вид битрейта : Постоянный
Битрейт : 1509 Кбит/сек
Каналы : 2 канала
Расположение каналов : Front: L R
Частота : 48,0 КГц
Частота кадров : 93,750 кадра/сек (512 spf)
Битовая глубина : 16 бит
Метод сжатия : С потерями
Размер потока : 1,19 Гбайт (10%)
Заголовок : Original
Язык : English
Default : Нет
Forced : Нет
Аудио #4
Идентификатор : 5
Формат : AC-3
Формат/Информация : Audio Coding 3
Расширение режима : CM (complete main)
Параметр Endianness формата : Big
Идентификатор кодека : A_AC3
Продолжительность : 1 ч. 52 м.
Вид битрейта : Постоянный
Битрейт : 256 Кбит/сек
Каналы : 2 канала
Расположение каналов : Front: L R
Частота : 48,0 КГц
Частота кадров : 31,250 кадров/сек (1536 spf)
Метод сжатия : С потерями
Размер потока : 205 Мбайт (2%)
Заголовок : Commentary by Director John Frankenheimer
Язык : English
Default : Нет
Forced : Нет
Текст
Идентификатор : 6
Формат : UTF-8
Идентификатор кодека : S_TEXT/UTF8
Идентификатор кодека/Информация : UTF-8 Plain Text
Продолжительность : 1 ч. 46 м.
Битрейт : 58 бит/сек
Count of elements : 1104
Размер потока : 45,8 Кбайт (0%)
Заголовок : Subtitle eng
Язык : English
Default : Нет
Forced : Нет
Меню
00:00:00.000 : en:00:00:00.000
00:15:48.364 : en:00:15:48.364
00:28:39.217 : en:00:28:39.217
00:45:37.901 : en:00:45:37.901
00:58:04.898 : en:00:58:04.898
01:10:55.167 : en:01:10:55.167
01:24:30.190 : en:01:24:30.190
01:38:42.583 : en:01:38:42.583

Скриншоты


Сравнение с исходником





x264 info

x264 [info]: using SAR=1/1
x264 [info]: using cpu capabilities: MMX2 SSE2Fast SSSE3 SSE4.2 AVX
x264 [info]: profile High, level 4.1
x264 [info]: frame I:980 Avg QP:15.42 size:184352
x264 [info]: frame P:30714 Avg QP:17.56 size:102800
x264 [info]: frame B:130377 Avg QP:19.68 size: 61857
x264 [info]: consecutive B-frames: 1.0% 1.4% 4.2% 11.6% 13.5% 54.7% 7.0% 1.6% 4.1% 1.0%
x264 [info]: mb I I16..4: 24.0% 52.9% 23.0%
x264 [info]: mb P I16..4: 1.9% 32.4% 4.0% P16..4: 17.6% 25.6% 13.2% 2.3% 0.1% skip: 2.9%
x264 [info]: mb B I16..4: 0.1% 11.1% 0.6% B16..8: 34.2% 23.5% 6.8% direct:15.5% skip: 8.3% L0:43.0% L1:36.6% BI:20.4%
x264 [info]: 8x8 transform intra:88.8% inter:53.5%
x264 [info]: direct mvs spatial:95.8% temporal:4.2%
x264 [info]: coded y,uvDC,uvAC intra: 96.6% 70.6% 44.3% inter: 72.6% 35.5% 3.7%
x264 [info]: i16 v,h,dc,p: 8% 3% 39% 51%
x264 [info]: i8 v,h,dc,ddl,ddr,vr,hd,vl,hu: 10% 8% 18% 9% 12% 11% 10% 10% 12%
x264 [info]: i4 v,h,dc,ddl,ddr,vr,hd,vl,hu: 36% 5% 7% 7% 10% 9% 8% 8% 8%
x264 [info]: i8c dc,h,v,p: 37% 33% 19% 11%
x264 [info]: Weighted P-Frames: Y:7.8% UV:1.3%
x264 [info]: ref P L0: 32.7% 9.7% 18.1% 9.8% 8.5% 6.7% 6.2% 4.1% 4.0% 0.4% 0.0%
x264 [info]: ref B L0: 68.4% 12.1% 7.2% 4.1% 3.2% 2.7% 1.6% 0.5%
x264 [info]: ref B L1: 94.3% 5.7%
x264 [info]: kb/s:13495.04
x264 [total]: encoded 162071 frames, 6.04 fps, 13495.04 kb/s
Показать сообщения:    

Текущее время: 17-Окт 10:14

Часовой пояс: UTC - 1


Вы не можете начинать темы
Вы не можете отвечать на сообщения
Вы не можете редактировать свои сообщения
Вы не можете удалять свои сообщения
Вы не можете голосовать в опросах
Вы не можете прикреплять файлы к сообщениям
Вы не можете скачивать файлы

!ВНИМАНИЕ!
Сайт не предоставляет электронные версии произведений, а занимается лишь коллекционированием и каталогизацией ссылок, присылаемых и публикуемых на форуме нашими читателями. Если вы являетесь правообладателем какого-либо представленного материала и не желаете, чтобы ссылка на него находилась в нашем каталоге, свяжитесь с нами, и мы незамедлительно удалим ее. Файлы для обмена на трекере предоставлены пользователями сайта, и администрация не несет ответственности за их содержание. Просьба не заливать файлы, защищенные авторскими правами, а также файлы нелегального содержания!