Важное объявление!
У Нас Все раздачи мультитрекерные, при нуле пиров в релизах, можете смело вставать на закачку!
Статистика раздачи
Размер:     |    Зарегистрирован:     |    Скачан:     |   
Нет
 
     
 
 
Автор Сообщение

HUNTER

Стаж:
5 лет
Сообщений:
67947

Репутация: 101

[+] [-]
Вне форума [Профиль] [ЛС]

Заброшенный / Forsaken
Страна: Канада, Франция, США
Жанр: драма, вестерн
Год выпуска: 2015
Продолжительность: 01:29:36-Перевод: Профессиональный (многоголосый закадровый) FocusStudio
Cубтитры: русские, английскиe
Оригинальная аудиодорожка: английский-Режиссер: Джон Кассар / Jon Cassar-В ролях: Деми Мур, Кифер Сазерленд, Дональд Сазерленд, Брайан Кокс, Майкл Уинкотт, Лэндон Либуарон, Шиван Уильямс, Джонни Рис, Аарон Пул, Али Уэбб
Описание: Наёмный убийца Джон Генри оставляет своё кровавое ремесло и возвращается в родной город, надеясь восстановить отношения с собственным отцом.-Релиз от:
-Тип релиза: BDRip 720p
Контейнер: MKV-Видео: 1280x 536 (2.40:1), 23,976 fps, MPEG-4 AVC, ~ 3635 kbps, 0.221 Bits/(Pixel*Frame)-Аудио 1: Russian: 48 kHz, DTS, 3/2 (L,C,R,l,r) + LFE ch, ~ 1509.00 kbps avg
Аудио 2: English: 48 kHz, DTS, 3/3 (L,C,R,l,c,r) + LFE ch, ~1509.00 kbps avg

MediaInfo

General
Уникальный идентификатор : 205142986580741005212057936946855474543 (0x9A551A21804EE1888AFA7463BDA0F56F)
Полное имя : E:\Forsaken.BDRip.720p.mkv
Формат : Matroska
Версия формата : Version 2
Размер файла : 4.25 GiB
Продолжительность : 1h 29mn
Общий поток : 6 788 Kbps
Название фильма : Forsaken.2015.x264.BDRip.720p.BLUEBIRD
Дата кодирования : UTC 2016-03-28 18:28:26
Программа кодирования : mkvmerge v7.9.0 ('Birds') 64bit
Библиотека кодирования : libebml v1.3.1 + libmatroska v1.4.2
Video
Идентификатор : 1
Формат : AVC
Формат/Информация : Advanced Video Codec
Профиль формата : High@L4.1
Параметр CABAC формата : Yes
Параметр ReFrames формата : 12 frames
Идентификатор кодека : V_MPEG4/ISO/AVC
Продолжительность : 1h 29mn
Битрейт : 3 635 Kbps
Ширина : 1 280 pixels
Высота : 536 pixels
Соотношение сторон : 2.40:1
Режим частоты кадров : Constant
Частота кадров : 23.976 fps
Цветовое пространство : YUV
Субдискретизация насыщенности : 4:2:0
Битовая глубина : 8 bits
Тип развёртки : Progressive
Бит/(Пиксели*Кадры) : 0.221
Размер потока : 2.28 GiB (54%)
Заголовок : Forsaken.2015.x264.BDRip.720p.BLUEBIRD
Библиотека кодирования : x264 core 148 r2665 a01e339
Настройки программы : cabac=1 / ref=12 / deblock=1:-3:-3 / analyse=0x3:0x113 / me=esa / subme=10 / psy=1 / psy_rd=1.10:0.00 / mixed_ref=1 / me_range=32 / chroma_me=1 / trellis=2 / 8x8dct=1 / cqm=0 / deadzone=21,11 / fast_pskip=0 / chroma_qp_offset=-2 / threads=12 / lookahead_threads=2 / sliced_threads=0 / nr=0 / decimate=0 / interlaced=0 / bluray_compat=0 / constrained_intra=0 / bframes=8 / b_pyramid=2 / b_adapt=2 / b_bias=0 / direct=3 / weightb=1 / open_gop=1 / weightp=2 / keyint=240 / keyint_min=23 / scenecut=40 / intra_refresh=0 / rc=crf / mbtree=0 / crf=16.9 / qcomp=0.60 / qpmin=0 / qpmax=69 / qpstep=4 / ip_ratio=1.40 / pb_ratio=1.30 / aq=1:0.80
Язык : English
Default : Yes
Forced : No
Audio #1
Идентификатор : 2
Формат : DTS
Формат/Информация : Digital Theater Systems
Режим : 16
Параметр Endianness формата : Big
Идентификатор кодека : A_DTS
Продолжительность : 1h 29mn
Вид битрейта : Constant
Битрейт : 1 509 Kbps
Каналы : 6 channels
Расположение каналов : Front: L C R, Side: L R, LFE
Частота : 48.0 KHz
Битовая глубина : 24 bits
Метод сжатия : Lossy
Размер потока : 967 MiB (22%)
Заголовок : Профессиональный многоголосый (Focus-Studio)
Язык : Russian
Default : Yes
Forced : No
Audio #2
Идентификатор : 3
Формат : DTS
Формат/Информация : Digital Theater Systems
Режим : 16
Параметр Endianness формата : Big
Идентификатор кодека : A_DTS
Продолжительность : 1h 29mn
Вид битрейта : Constant
Битрейт : 1 509 Kbps
Каналы : 6 channels
Расположение каналов : Front: L C R, Side: L R, LFE
Частота : 48.0 KHz
Битовая глубина : 24 bits
Метод сжатия : Lossy
Размер потока : 967 MiB (22%)
Язык : English
Default : No
Forced : No
Text #1
Идентификатор : 4
Формат : UTF-8
Идентификатор кодека : S_TEXT/UTF8
Идентификатор кодека/Информация : UTF-8 Plain Text
Заголовок : full
Язык : Russian
Default : No
Forced : No
Text #2
Идентификатор : 5
Формат : UTF-8
Идентификатор кодека : S_TEXT/UTF8
Идентификатор кодека/Информация : UTF-8 Plain Text
Заголовок : full
Язык : English
Default : No
Forced : No
Text #3
Идентификатор : 6
Формат : UTF-8
Идентификатор кодека : S_TEXT/UTF8
Идентификатор кодека/Информация : UTF-8 Plain Text
Заголовок : SDH
Язык : English
Default : No
Forced : No
Menu
00:00:00.000 : en:00:00:00.000
00:04:01.199 : en:00:04:01.199
00:10:27.043 : en:00:10:27.043
00:17:04.982 : en:00:17:04.982
00:22:49.076 : en:00:22:49.076
00:27:14.591 : en:00:27:14.591
00:33:08.862 : en:00:33:08.862
00:38:31.559 : en:00:38:31.559
00:43:52.004 : en:00:43:52.004
00:50:08.881 : en:00:50:08.881
00:55:19.066 : en:00:55:19.066
01:00:12.651 : en:01:00:12.651
01:06:26.232 : en:01:06:26.232
01:12:33.266 : en:01:12:33.266
01:19:02.321 : en:01:19:02.321
01:25:28.123 : en:01:25:28.123

Скриншоты


_________________
Показать сообщения:    

Текущее время: Сегодня 18:52

Часовой пояс: GMT



Вы не можете начинать темы
Вы не можете отвечать на сообщения
Вы не можете редактировать свои сообщения
Вы не можете удалять свои сообщения
Вы не можете голосовать в опросах
Вы не можете прикреплять файлы к сообщениям
Вы не можете скачивать файлы