Важное объявление!
У Нас Все раздачи мультитрекерные, при нуле пиров в релизах, можете смело вставать на закачку!
Статистика раздачи
Размер:     |    Зарегистрирован:     |    Скачан:     |   
Нет
 
     
 
 
Автор Сообщение

HUNTER

Стаж:
5 лет
Сообщений:
68053

Репутация: 101

[+] [-]
Вне форума [Профиль] [ЛС]

Жёсткое диско / Хардкорное диско / Hardkor Disko
Страна: Польша
Жанр: драма
Год выпуска: 2014
Продолжительность: 01:23:15
Перевод: Одноголосый закадровый den904
Cубтитры: русские, английские, испанские, французские.
Оригинальная аудиодорожка: польский
Режиссер: Кшиштоф Сконечный / Krzysztof Skonieczny
В ролях: Марцин Ковальчик, Жасмин Полак, Януш Хабёр, Кшиштоф Сконечный, Шимон Новак, Лех Лотоцкий, Мацей Навроцкий
Описание: Современный метрополис. Родители-нувориши и их гедонисты-дети живут в мире, где злоба и напряжение достигают взрывоопасного уровня. Мартин, недавно перебравшийся в столицу из провинции, знакомится с Олей. Девушка вводит своего нового знакомого в мир наркотиков, бесконечных богемных тусовок и нелегальных автогонок. Ни она, ни её родители не подозревают, что Мартин не так прост, как кажется на первый взгляд, и в его голове зреет хитрый план…
Доп. информация: Диск из собственной колекции.
Бонусы: Трейлеры.
Сэмпл: http://sendfile.su/1135243
Тип релиза: DVD9 (Custom)
Контейнер: DVD-Video
Видео: PAL 16:9 (720x576) VBR Auto Pan&Scan
Аудио: Russian (Dolby AC3, 224 Kbps, 2 ch)
Аудио 2: Polish (Dolby AC3, 448 Kbps, 6 ch)
Аудио 3: Polish (Dolby AC3, 192 Kbps, 2 ch)
Формат субтитров: prerendered (DVD/IDX+SUB)

DVDInfo

Size: 4.49 Gb ( 4 705 444 KBytes ) - DVD-9
Enabled regions: 1, 2, 3, 4, 5, 6, 7, 8
VTS_01 :
Play Length: 01:23:15
Video: PAL 16:9 (720x576) VBR, Auto Pan&Scan
Audio:
Russian (Dolby AC3, 2 ch)
Polish (Dolby AC3, 6 ch)
Polish (Dolby AC3, 2 ch)
Subtitles:
Russian
English
Espanol
Francais
VTS_02 :
Play Length: 00:00:11
Video: PAL 16:9 (720x576) VBR, Auto Pan&Scan
Audio:
Not specified (Dolby AC3, 1 ch)
VTS_03 :
Play Length:
Video: PAL 16:9 (720x576) VBR, Auto Pan&Scan
Audio:
Polish (Dolby AC3, 6 ch)
Polish (Dolby AC3, 2 ch)
Subtitles:
English
Espanol
VTS_04 :
Play Length: 00:01:57+00:00:31+00:03:17+00:04:00
Video: PAL 16:9 (720x576) VBR, Auto Pan&Scan
Audio:
Polish (Dolby AC3, 2 ch)
Menu Video:
PAL 16:9 (720x576) VBR
Auto Pan&Scan
Menu Polish Language Unit :
Root Menu
Chapter (PTT) Menu

MediaInfo

General
Complete name : K:\Hardkor Disko_2014\VIDEO_TS\VTS_01_1.VOB
Format : MPEG-PS
File size : 1 024 MiB
Duration : 23mn 25s
Overall bit rate mode : Variable
Overall bit rate : 6 113 Kbps
Video
ID : 224 (0xE0)
Format : MPEG Video
Format version : Version 2
Format profile : Main@Main
Format settings, BVOP : Yes
Format settings, Matrix : Custom
Duration : 23mn 25s
Bit rate mode : Variable
Bit rate : 5 127 Kbps
Maximum bit rate : 9 800 Kbps
Width : 720 pixels
Height : 576 pixels
Display aspect ratio : 16:9
Frame rate : 25.000 fps
Standard : PAL
Color space : YUV
Chroma subsampling : 4:2:0
Bit depth : 8 bits
Scan type : Progressive
Scan order : Top Field First
Compression mode : Lossy
Bits/(Pixel*Frame) : 0.494
Stream size : 859 MiB (84%)
Audio #1
ID : 189 (0xBD)-128 (0x80)
Format : AC-3
Format/Info : Audio Coding 3
Mode extension : CM (complete main)
Format settings, Endianness : Big
Muxing mode : DVD-Video
Duration : 23mn 24s
Bit rate mode : Constant
Bit rate : 224 Kbps
Channel(s) : 2 channels
Channel positions : Front: L R
Sampling rate : 48.0 KHz
Bit depth : 16 bits
Compression mode : Lossy
Stream size : 37.5 MiB (4%)
Audio #2
ID : 189 (0xBD)-129 (0x81)
Format : AC-3
Format/Info : Audio Coding 3
Mode extension : CM (complete main)
Format settings, Endianness : Big
Muxing mode : DVD-Video
Duration : 23mn 24s
Bit rate mode : Constant
Bit rate : 448 Kbps
Channel(s) : 6 channels
Channel positions : Front: L C R, Side: L R, LFE
Sampling rate : 48.0 KHz
Bit depth : 16 bits
Compression mode : Lossy
Stream size : 75.0 MiB (7%)
Audio #3
ID : 189 (0xBD)-130 (0x82)
Format : AC-3
Format/Info : Audio Coding 3
Mode extension : CM (complete main)
Format settings, Endianness : Big
Muxing mode : DVD-Video
Duration : 23mn 24s
Bit rate mode : Constant
Bit rate : 192 Kbps
Channel(s) : 2 channels
Channel positions : Front: L R
Sampling rate : 48.0 KHz
Bit depth : 16 bits
Compression mode : Lossy
Stream size : 32.2 MiB (3%)
Text #1
ID : 189 (0xBD)-32 (0x20)
Format : RLE
Format/Info : Run-length encoding
Muxing mode : DVD-Video
Duration : 23mn 18s
Delay relative to video : 1s 40ms
Text #2
ID : 189 (0xBD)-33 (0x21)
Format : RLE
Format/Info : Run-length encoding
Muxing mode : DVD-Video
Duration : 23mn 18s
Delay relative to video : 920ms
Text #3
ID : 189 (0xBD)-34 (0x22)
Format : RLE
Format/Info : Run-length encoding
Muxing mode : DVD-Video
Duration : 23mn 18s
Delay relative to video : 920ms
Text #4
ID : 189 (0xBD)-35 (0x23)
Format : RLE
Format/Info : Run-length encoding
Muxing mode : DVD-Video
Duration : 23mn 18s
Delay relative to video : 920ms
Menu

Постеры

Скриншоты меню


_________________
Показать сообщения:    

Текущее время: Сегодня 10:44

Часовой пояс: GMT



Вы не можете начинать темы
Вы не можете отвечать на сообщения
Вы не можете редактировать свои сообщения
Вы не можете удалять свои сообщения
Вы не можете голосовать в опросах
Вы не можете прикреплять файлы к сообщениям
Вы не можете скачивать файлы