Жюль Верн. Невероятные путешествия. 800 лье вниз по Амазонке / Jules Verne\'s amazing journeys: 800 Leagues Down the Amazon (Жан-Пьер Жёне / Jean-Pierre Jeunet) [2001, Франция, Германия, приключения, DVDRip] MVO :: Ивановский Торрент трекер
Важное объявление!
У Нас Все раздачи мультитрекерные, при нуле пиров в релизах, можете смело вставать на закачку!
Статистика раздачи
Размер:     |    Зарегистрирован:     |    Скачан:     |   
Нет
 
     
 
 
Автор Сообщение

HUNTER

Стаж:
4 года 11 месяцев
Сообщений:
66098

Репутация: 101

[+] [-]
Вне форума [Профиль] [ЛС]

Жюль Верн. Невероятные путешествия. 800 лье вниз по Амазонке
Jules Verne's amazing journeys: 800 Leagues Down the Amazon


Страна: Франция, Германия
Жанр: приключения
Продолжительность: 00:47:45
Год выпуска: 2001
Перевод: Профессиональный (многоголосый закадровый)
Русские субтитры: нет

Режиссёр: Жан-Пьер Жёне / Jean-Pierre Jeunet
Описание: Благородный плантатор, которого несправедливо обвинили и приговорили к смертной казни, смог вырваться из тюрьмы и бежать. Теперь он вынужден скрываться под чужим именем и жить в постоянных скитаниях. Чтобы выдать замуж свою очаровательную дочь, плантатор и его приближенные, подвергая себя неминуемой опасности и рискуя жизнью, отправляются на плоту вниз по Амазонке к тому городу, где живут родители жениха. Пережив множество приключений, путешественники достигают пункта назначения, но отец невесты попадает в руки полиции. Есть только один способ спасти невиновного

Качество: DVDRip
Формат: AVI
Видео: 624x480 (1.30:1), 25 fps, XviD build 73 ~1718 kbps avg, 0.23 bit/pixel
Аудио: 48 kHz, AC3 Dolby Digital, 3/2 (L,C,R,l,r) + LFE ch, ~448 kbps
Субтитры: отсутствуют

Подробные технические данные

ОбщееПолное имя : H:\800.Leagues.Down.the.Amazon.2001.dvdrip_[745]_[teko].aviФормат : AVIФормат/Информация : Audio Video InterleaveРазмер файла : 743 МбайтПродолжительность : 47 м.Общий поток : 2176 Кбит/секПрограмма кодирования : VirtualDubMod 1.5.10.3 | www.virtualdub-fr.org || (build 2550/release)Библиотека кодирования : VirtualDubMod build 2550/release
ВидеоИдентификатор : 0Формат : MPEG-4 VisualПрофиль формата : Advanced Simple@L5Параметр BVOP формата : 2Параметр QPel формата : НетПараметр GMC формата : Без точки переходаПараметр матрицы формата : ВыборочнаяИдентификатор кодека : XVIDИдентификатор кодека/Подсказка : XviDПродолжительность : 47 м.Битрейт : 1718 Кбит/секШирина : 624 пикселяВысота : 480 пикселейСоотношение сторон : 4:3Частота кадров : 25,000 кадров/секЦветовое пространство : YUVСубдискретизация насыщенности : 4:2:0Битовая глубина : 8 битТип развёртки : ПрогрессивнаяМетод сжатия : С потерямиБит/(Пиксели*Кадры) : 0.229Размер потока : 587 Мбайт (79%)Библиотека кодирования : XviD 73
АудиоИдентификатор : 1Формат : AC-3Формат/Информация : Audio Coding 3Расширение режима : CM (complete main)Параметр Endianness формата : BigИдентификатор кодека : 2000Продолжительность : 47 м.Вид битрейта : ПостоянныйБитрейт : 448 Кбит/секКаналы : 6 каналовРасположение каналов : Front: L C R, Side: L R, LFEЧастота : 48,0 КГцБитовая глубина : 16 битМетод сжатия : С потерямиРазмер потока : 153 Мбайт (21%)Выравнивание : Разделение по промежуткамПродолжительность промежутка : 40 мс. (1,00 видеокадр)Время предзагрузки промежутка : 500 мс.
Релиз группы:
--

_________________
Показать сообщения:    

Текущее время: Сегодня 07:14

Часовой пояс: GMT



Вы не можете начинать темы
Вы не можете отвечать на сообщения
Вы не можете редактировать свои сообщения
Вы не можете удалять свои сообщения
Вы не можете голосовать в опросах
Вы не можете прикреплять файлы к сообщениям
Вы не можете скачивать файлы