Ивановский Торрент трекер
Яндекс.Погода
 

[Цитировать]
Рокси

Жутко громко и запредельно близко / Extremely Loud & Incredibly Close-Страна: США
Жанр: драма, приключения
Год выпуска: 2011
Продолжительность: 02:09:30
Перевод 1: Профессиональный (многоголосый, закадровый)
Перевод 2: Двухголосый закадровый
Перевод 3: Одноголосый закадровый Stalk (по субтитрам kato_rapture)
Оригинальная аудио дорожка: Английский
Cубтитры: Русские, Английские-Режиссер : Стивен Долдри / Stephen Daldry-В ролях: Том Хэнкс, Сандра Буллок, Томас Хорн, Макс фон Сюдов, Виола Дэвис, Джон Гудмен, Джеффри Райт, Зои Колдуэлл, Дэннис Хирн, Пол Клементовиц-Описание: Картина "Жутко Громко и Запредельно Близко" поведает историю 11-летнего мальчика по имени Оскар Шелл, чей отец погиб во время терактов 11 сентября 2001 года. Еще до своей смерти отец Оскара придумал для него игру - разведывательные экспедиции, в ходе которых Оскару надлежало найти то или иное сокровище. В ходе их последней совместной игры Оскар должен был найти 6-ой округ Нью-Йорка, которого больше не существует. После "самого ужасного дня", как Оскар называет 11 сентября 2001 года, мальчик находит в шкафу отца конверт, на котором написана фамилия "Блэк", а внутри лежит таинственный ключ. Решив, что отец оставил ему подсказку, Оскар решает во что бы то ни стало отыскать замок, который этот ключ сможет открыть, и найти, наконец, 6-ой округ.
В ходе своего путешествия по всему Нью-Йорку мальчику не раз придется столкнуться со своими самыми жуткими страхами, преодолеть свои кошмары, встретиться с сотней самых разных людей, узнать их истории жизни и поведать им свою, а также вновь сблизиться со своей матерью.
- -Качество видео: BDRip 720p HDChina
Формат видео: MKV
Видео: MPEG-4 AVC Video 4539 Kbps / 720p (1280x534) / 23.976fps / 16:9 / High Profile 4.1
Аудио 1: Russian AC3, 6 channels, 48 kHz, 640 kbps (MVO CEE)
Аудио 2: Russian AC3, 6 channels, 48 kHz, 384 kbps (DVO)
Аудио 3: Russian DTS, 6 channels, 48 kHz, 1510 kbps (Stalk)
Аудио 4: English DTS 5.1 / 48 kHz / 1509 kbps / 16-bit-Сэмпл: http://multi-up.com/732004

Скриншоты

Сравнения

ThD - Source - HDChina






Медиаинфо

Общее
Уникальный идентификатор : 180836801564415656749824006012462317940 (0x880BE6AFAB87A80182C19506DA2E4174)
Полное имя : Extremely.Loud.&.Incredibly.Close.2011.720p.mkv
Формат : Matroska
Версия формата : Version 2
Размер файла : 7,77 Гбайт
Продолжительность : 2 ч. 9 м.
Общий поток : 8586 Кбит/сек
Дата кодирования : UTC 2012-07-12 17:38:05
Программа кодирования : mkvmerge v5.2.1 ('A Far Off Place') built on Jan 2 2012 23:21:10
Библиотека кодирования : libebml v1.2.3 + libmatroska v1.3.0
Видео
Идентификатор : 1
Формат : AVC
Формат/Информация : Advanced Video Codec
Профиль формата : High@L4.1
Параметр CABAC формата : Да
Параметр ReFrames формата : 12 кадров
Идентификатор кодека : V_MPEG4/ISO/AVC
Продолжительность : 2 ч. 9 м.
Битрейт : 4539 Кбит/сек
Ширина : 1280 пикселей
Высота : 534 пикселя
Соотношение сторон : 2,40:1
Частота кадров : 23,976 кадра/сек
Цветовое пространство : YUV
Субдискретизация насыщенности : 4:2:0
Битовая глубина : 8 бит
Тип развёртки : Прогрессивная
Бит/(Пиксели*Кадры) : 0.277
Размер потока : 3,95 Гбайт (51%)
Библиотека кодирования : x264 core 120 r2164 da19765
Настройки программы : cabac=1 / ref=12 / deblock=1:-3:-3 / analyse=0x3:0x133 / me=umh / subme=10 / psy=1 / psy_rd=1.00:0.00 / mixed_ref=1 / me_range=32 / chroma_me=1 / trellis=2 / 8x8dct=1 / cqm=0 / deadzone=21,11 / fast_pskip=1 / chroma_qp_offset=-2 / threads=12 / sliced_threads=0 / nr=0 / decimate=0 / interlaced=0 / bluray_compat=0 / constrained_intra=0 / bframes=6 / b_pyramid=2 / b_adapt=2 / b_bias=0 / direct=3 / weightb=1 / open_gop=0 / weightp=2 / keyint=250 / keyint_min=23 / scenecut=40 / intra_refresh=0 / rc_lookahead=60 / rc=2pass / mbtree=0 / bitrate=4539 / ratetol=1.0 / qcomp=0.60 / qpmin=0 / qpmax=69 / qpstep=4 / cplxblur=20.0 / qblur=0.5 / vbv_maxrate=50000 / vbv_bufsize=50000 / nal_hrd=none / ip_ratio=1.50 / pb_ratio=1.30 / aq=1:1.00
Язык : English
Default : Да
Forced : Нет
Аудио #1
Идентификатор : 2
Формат : AC-3
Формат/Информация : Audio Coding 3
Расширение режима : CM (complete main)
Идентификатор кодека : A_AC3
Продолжительность : 2 ч. 9 м.
Вид битрейта : Постоянный
Битрейт : 640 Кбит/сек
Каналы : 6 каналов
Расположение каналов : Front: L C R, Side: L R, LFE
Частота : 48,0 КГц
Битовая глубина : 16 бит
Метод сжатия : С потерями
Размер потока : 593 Мбайт (7%)
Заголовок : MVO R5
Язык : Russian
Default : Да
Forced : Нет
Аудио #2
Идентификатор : 3
Формат : AC-3
Формат/Информация : Audio Coding 3
Расширение режима : CM (complete main)
Идентификатор кодека : A_AC3
Продолжительность : 2 ч. 9 м.
Вид битрейта : Постоянный
Битрейт : 384 Кбит/сек
Каналы : 6 каналов
Расположение каналов : Front: L C R, Side: L R, LFE
Частота : 48,0 КГц
Битовая глубина : 16 бит
Метод сжатия : С потерями
Размер потока : 356 Мбайт (4%)
Заголовок : DVO
Язык : Russian
Default : Нет
Forced : Нет
Аудио #3
Идентификатор : 4
Формат : DTS
Формат/Информация : Digital Theater Systems
Идентификатор кодека : A_DTS
Продолжительность : 2 ч. 9 м.
Вид битрейта : Постоянный
Битрейт : 1510 Кбит/сек
Каналы : 6 каналов
Расположение каналов : Front: L C R, Side: L R, LFE
Частота : 48,0 КГц
Битовая глубина : 24 бит
Метод сжатия : С потерями
Размер потока : 1,37 Гбайт (18%)
Заголовок : VO
Язык : Russian
Default : Нет
Forced : Нет
Аудио #4
Идентификатор : 5
Формат : DTS
Формат/Информация : Digital Theater Systems
Идентификатор кодека : A_DTS
Продолжительность : 2 ч. 9 м.
Вид битрейта : Постоянный
Битрейт : 1510 Кбит/сек
Каналы : 6 каналов
Расположение каналов : Front: L C R, Side: L R, LFE
Частота : 48,0 КГц
Битовая глубина : 24 бит
Метод сжатия : С потерями
Размер потока : 1,37 Гбайт (18%)
Язык : English
Default : Нет
Forced : Нет
Текст #1
Идентификатор : 6
Формат : UTF-8
Идентификатор кодека : S_TEXT/UTF8
Идентификатор кодека/Информация : UTF-8 Plain Text
Язык : Russian
Default : Нет
Forced : Нет
Текст #2
Идентификатор : 7
Формат : UTF-8
Идентификатор кодека : S_TEXT/UTF8
Идентификатор кодека/Информация : UTF-8 Plain Text
Язык : Russian
Default : Нет
Forced : Нет
Текст #3
Идентификатор : 8
Формат : UTF-8
Идентификатор кодека : S_TEXT/UTF8
Идентификатор кодека/Информация : UTF-8 Plain Text
Заголовок : Forced
Язык : Russian
Default : Да
Forced : Нет
Текст #4
Идентификатор : 9
Формат : UTF-8
Идентификатор кодека : S_TEXT/UTF8
Идентификатор кодека/Информация : UTF-8 Plain Text
Язык : English
Default : Нет
Forced : Нет
Меню
00:00:00.000 : en:00:00:00.000
00:09:45.168 : en:00:09:45.168
00:19:20.868 : en:00:19:20.868
00:30:38.420 : en:00:30:38.420
00:40:29.761 : en:00:40:29.761
00:50:47.670 : en:00:50:47.670
01:02:01.676 : en:01:02:01.676
01:10:17.672 : en:01:10:17.672
01:20:05.676 : en:01:20:05.676
01:30:13.950 : en:01:30:13.950
01:38:48.256 : en:01:38:48.256
01:49:26.310 : en:01:49:26.310
02:00:31.683 : en:02:00:31.683
02:02:19.958 : en:02:02:19.958


Показать сообщения:    

Текущее время: 11-Дек 21:02

Часовой пояс: UTC ± 0


Вы не можете начинать темы
Вы не можете отвечать на сообщения
Вы не можете редактировать свои сообщения
Вы не можете удалять свои сообщения
Вы не можете голосовать в опросах
Вы не можете прикреплять файлы к сообщениям
Вы не можете скачивать файлы

!ВНИМАНИЕ!
Сайт не предоставляет электронные версии произведений, а занимается лишь коллекционированием и каталогизацией ссылок, присылаемых и публикуемых на форуме нашими читателями. Если вы являетесь правообладателем какого-либо представленного материала и не желаете, чтобы ссылка на него находилась в нашем каталоге, свяжитесь с нами, и мы незамедлительно удалим ее. Файлы для обмена на трекере предоставлены пользователями сайта, и администрация не несет ответственности за их содержание. Просьба не заливать файлы, защищенные авторскими правами, а также файлы нелегального содержания!