Журов (16 серий из 16)[Илья Макаров, Карен Оганесян](2009г.детектив) DVDRip :: Ивановский Торрент трекер
Важное объявление!
У Нас Все раздачи мультитрекерные, при нуле пиров в релизах, можете смело вставать на закачку!
Статистика раздачи
Размер:     |    Зарегистрирован:     |    Скачан:     |   
Нет
 
     
 
 
Автор Сообщение

HUNTER

Стаж:
4 года 11 месяцев
Сообщений:
66052

Репутация: 101

[+] [-]
Вне форума [Профиль] [ЛС]

______________________
[size=32]Журов

______________________
Год выпуска: 2009
Страна: Россия
Жанр: детектив
Субтитры: нет
В ролях:

Андрей Панин,
Светлана Иванова,Елена Сафонова,Олеся Судзиловская,Ольга Дроздова,Константин Лавроненко,Алексей Шевченков,Ирина Баринова,Никита Емшанов,Кирилл Сафонов
Режиссёр:
Илья Макаров, Карен Оганесян
Описание:
Журов — незадачливый, но очень опытный сыщик. Он везде разъезжает на своей старенькой «Победе», один воспитывает дочь, любит выпить и имеет весьма смутные амурные отношения со своей коллегой. Все это не мешает ему виртуозно раскрывать самые сложные и запутанные дела, за которые, кроме него, больше никто не рискует браться.
--
-


-- Продолжительность: 16 x ~ 00:50:00
Качество видео:DVDRip
Видео: кодек: XviD , формат: AVI , размер кадра: 688x384 , битрейт: 1 528 , фреймрейт: 25.000 fps
Аудио : язык: русский , перевод: оригинал , кодек: AC3 , каналы: 2.0 , битрейт: 192

МедиаИнфо

Complete name : ...\Zhurov 1\Zhurov.01.ser.iz.16.2009.XviD.DVDRip.avi
Format : AVI
Format/Info : Audio Video Interleave
File size : 627 MiB
Duration : 50mn 42s
Overall bit rate : 1 730 Kbps
Director : zim2001
Writing application : VirtualDubMod 1.5.10.2 (build 2540/release)
Video
ID : 0
Format : MPEG-4 Visual
Format profile : Advanced Simple@L5
Format settings, BVOP : 1
Format settings, QPel : No
Format settings, GMC : No warppoints
Format settings, Matrix : Custom
Codec ID : XVID
Codec ID/Hint : XviD
Duration : 50mn 42s
Bit rate : 1 528 Kbps
Width : 688 pixels
Height : 384 pixels
Display aspect ratio : 16:9
Frame rate : 25.000 fps
Color space : YUV
Chroma subsampling : 4:2:0
Bit depth : 8 bits
Scan type : Progressive
Compression mode : Lossy
Bits/(Pixel*Frame) : 0.231
Stream size : 554 MiB (88%)
Writing library : XviD 1.2.1 (UTC 2008-12-04)
Audio
ID : 1
Format : AC-3
Format/Info : Audio Coding 3
Mode extension : CM (complete main)
Codec ID : 2000
Duration : 50mn 42s
Bit rate mode : Constant
Bit rate : 192 Kbps
Channel(s) : 2 channels
Channel positions : Front: L R
Sampling rate : 48.0 KHz
Bit depth : 16 bits
Compression mode : Lossy
Stream size : 69.6 MiB (11%)
Alignment : Split accross interleaves
Interleave, duration : 40 ms (1.00 video frame)
Interleave, preload duration : 500 ms

_________________
Показать сообщения:    

Текущее время: Сегодня 17:38

Часовой пояс: GMT



Вы не можете начинать темы
Вы не можете отвечать на сообщения
Вы не можете редактировать свои сообщения
Вы не можете удалять свои сообщения
Вы не можете голосовать в опросах
Вы не можете прикреплять файлы к сообщениям
Вы не можете скачивать файлы