Важное объявление!
У Нас Все раздачи мультитрекерные, при нуле пиров в релизах, можете смело вставать на закачку!
Статистика раздачи
Размер:     |    Зарегистрирован:     |    Скачан:     |   
Нет
 
     
 
 
Автор Сообщение

HUNTER

Стаж:
5 лет
Сообщений:
68004

Репутация: 101

[+] [-]
Вне форума [Профиль] [ЛС]

Журнал Маринер 4 / The Log of Mariner IV
Дата/Год выпуска: 1965
Страна: США
Жанр: Документальный, научно-популярный
Продолжительность: 00:24:35
Перевод: Субтитры
Русские субтитры: есть
Оригинальная аудиодорожка: английский
Описание: Этот фильм рассказывает про устройство и цели космического аппарата по изучанию планеты Марс.
качество: TVRip
формат: MKV
Видео: H264 640x360 29.97fps 840kbps
Аудио: AC3 48000Hz mono 96kbps

MediaInfo

GeneralUnique ID : 197626349823950938991834931891454154278 (0x94AD73537B7AABB3A1935A56F2211626)Complete name : C:\The Log of Mariner IV (1965).mkvFormat : MatroskaFormat version : Version 4 / Version 2File size : 174 MiBDuration : 25mn 27sOverall bit rate : 955 KbpsEncoded date : UTC 2015-08-18 18:30:02Writing application : mkvmerge v7.8.0 ('River Man') 32bit built on Mar 27 2015 16:18:02Writing library : libebml v1.3.1 + libmatroska v1.4.2DURATION : 00:23:57.980000000NUMBER_OF_FRAMES : 358NUMBER_OF_BYTES : 27787_STATISTICS_WRITING_APP : mkvmerge v7.8.0 ('River Man') 32bit built on Mar 27 2015 16:18:02_STATISTICS_WRITING_DATE_UT : 2015-08-18 18:30:02_STATISTICS_TAGS : BPS DURATION NUMBER_OF_FRAMES NUMBER_OF_BYTES
VideoID : 1Format : AVCFormat/Info : Advanced Video CodecFormat profile : Baseline@L3Format settings, CABAC : NoFormat settings, ReFrames : 1 frameFormat settings, GOP : M=1, N=30Codec ID : V_MPEG4/ISO/AVCDuration : 25mn 27sBit rate : 840 KbpsWidth : 640 pixelsHeight : 360 pixelsDisplay aspect ratio : 16:9Frame rate mode : ConstantFrame rate : 29.970 fpsColor space : YUVChroma subsampling : 4:2:0Bit depth : 8 bitsScan type : ProgressiveBits/(Pixel*Frame) : 0.122Stream size : 153 MiB (88%)Writing library : x264 core 140Encoding settings : cabac=0 / ref=1 / deblock=1:0:0 / analyse=0x1:0x1 / me=dia / subme=1 / psy=1 / psy_rd=1.00:0.00 / mixed_ref=0 / me_range=16 / chroma_me=1 / trellis=0 / 8x8dct=0 / cqm=0 / deadzone=21,11 / fast_pskip=1 / chroma_qp_offset=0 / threads=3 / lookahead_threads=1 / sliced_threads=0 / nr=0 / decimate=1 / interlaced=0 / bluray_compat=0 / constrained_intra=0 / bframes=0 / weightp=0 / keyint=250 / keyint_min=25 / scenecut=40 / intra_refresh=0 / rc_lookahead=0 / rc=crf / mbtree=0 / crf=23.0 / qcomp=0.60 / qpmin=0 / qpmax=69 / qpstep=4 / vbv_maxrate=2500 / vbv_bufsize=3500 / crf_max=0.0 / nal_hrd=none / filler=0 / ip_ratio=1.40 / aq=1:1.00Default : YesForced : No
AudioID : 2Format : AC-3Format/Info : Audio Coding 3Mode extension : CM (complete main)Format settings, Endianness : BigCodec ID : A_AC3Duration : 25mn 27sBit rate mode : ConstantBit rate : 96.0 KbpsChannel(s) : 1 channelChannel positions : Front: CSampling rate : 48.0 KHzCompression mode : LossyStream size : 17.5 MiB (10%)Default : YesForced : No
TextID : 3Format : UTF-8Codec ID : S_TEXT/UTF8Codec ID/Info : UTF-8 Plain TextDefault : YesForced : No

Скриншоты


_________________
Показать сообщения:    

Текущее время: Сегодня 04:54

Часовой пояс: GMT



Вы не можете начинать темы
Вы не можете отвечать на сообщения
Вы не можете редактировать свои сообщения
Вы не можете удалять свои сообщения
Вы не можете голосовать в опросах
Вы не можете прикреплять файлы к сообщениям
Вы не можете скачивать файлы