Ивановский Торрент трекер
Яндекс.Погода
 

[Цитировать]
димитри37

Жила-была одна баба- -Год выпуска: 2011
Страна: Россия
Жанр: драма, история
Продолжительность: 02:35:40
Перевод: Не требуется
Субтитры: Нет-Режиссер: Андрей Смирнов-В ролях: Дарья Екамасова, Владислав Абашин, Максим Аверин, Алексей Серебряков, Алексей Шевченков, Роман Мадянов, Евдокия Германова, Агриппина Стеклова, Андрей Курносов, Александр Колодин-Описание: История частной жизни одной женщины и четверых ее мужчин. Главная героиня — неграмотная крестьянка, и действие фильма начинается с ее свадьбы в 1909 году, когда девушку из нищей семьи взяли в богатую, а кончается в 1921 году Антоновским восстанием.


Качество: BDRip
Исходник: Сторонний ресурс
Формат: MPEG-4
Видео кодек: H.264
Аудио кодек: AAC
Видео: 1024x436, 3000 Kbps, 23,976 fps
Аудио Rus: 48 kHz, AAC, 2ch, 164 kbps

MediaInfo

Полное имя : E:\Once there was a woman.m4v
Формат : MPEG-4
Профиль формата : Base Media / Version 2
Идентификатор кодека : mp42
Размер файла : 3,44 Гбайт
Продолжительность : 2 ч. 35 м.
Общий поток : 3167 Кбит/сек
Название фильма : Жила-была одна баба
Исполнитель : Андрей Смирнов
Жанр : Drama
Дата записи : UTC 2011-10-27 07:00:00
Дата кодирования : UTC 2012-02-18 18:13:31
Дата пометки : UTC 2012-03-09 16:46:36
Программа кодирования : X Lossless Decoder 20100401, QuickTime 7.6.6, Constrained VBR 160 kbps
Обложка : Yes
desc : История частной жизни одной женщины и четверых ее мужчин. Главная героиня — неграмотная крестьянка, и действие фильма начинается с ее свадьбы в 1909 году, когда девушку из нищей семьи взяли в богатую, а кончается в 1921 году Антоновским восстанием.
ldes : История частной жизни одной женщины и четверых ее мужчин. Главная героиня — неграмотная крестьянка, и действие фильма начинается с ее свадьбы в 1909 году, когда девушку из нищей семьи взяли в богатую, а кончается в 1921 году Антоновским восстанием.
hdvd : 1
stik : 9
rtng : 0
cnID : 460255
xid : iPad:vendor_id:2011-460255
iTunMOVI : / / / / cast / / / name / Дарья Екамасова / / / name / Владислав Абашин / / / name / Максим Аверин / / / name / Алексей Серебряков / / / name / Алексей Шевченков / / / name / Роман Мадянов / / / name / Евдокия Германова / / / name / Агриппина Стеклова / / / name / Андрей Курносов / / / name / Александр Колодин / / / directors / / / name / Андрей Смирнов / / / producers / / / name / Елена Прудникова / / / name / Андрей Смирнов / / / name / Анна Каминская / / / screenwriters / / / name / Андрей Смирнов / / / /
Видео
Идентификатор : 1
Формат : AVC
Формат/Информация : Advanced Video Codec
Профиль формата : High@L4.1
Параметр CABAC формата : Да
Параметр ReFrames формата : 8 кадры
Идентификатор кодека : avc1
Идентификатор кодека/Информация : Advanced Video Coding
Продолжительность : 2 ч. 35 м.
Вид битрейта : Переменный
Битрейт : 3000 Кбит/сек
Ширина : 1024 пикс.
Высота : 436 пикс.
Соотношение сторон : 2,35:1
Режим частоты кадров : Переменный
Частота кадров : 24,000 кадр/сек
Минимальная частота кадров : 23,810 кадр/сек
Максимальная частота кадров : 24,390 кадр/сек
Цветовое пространство : YUV
Подвыборка цветности : 4:2:0
Битовая глубина : 8 бит
Тип развёртки : Прогрессивная
Бит/(Пиксели*Кадры) : 0.280
Размер потока : 3,26 Гбайт (95%)
Библиотека кодирования : x264 core 116 r2074 2641b9e
Настройки программы : cabac=1 / ref=8 / deblock=1:-3:-3 / analyse=0x3:0x133 / me=umh / subme=10 / psy=1 / psy_rd=1.10:0.10 / mixed_ref=1 / me_range=32 / chroma_me=1 / trellis=2 / 8x8dct=1 / cqm=0 / deadzone=21,11 / fast_pskip=0 / chroma_qp_offset=-3 / threads=16 / sliced_threads=0 / nr=0 / decimate=0 / interlaced=0 / bluray_compat=0 / constrained_intra=0 / bframes=9 / b_pyramid=2 / b_adapt=2 / b_bias=0 / direct=3 / weightb=1 / open_gop=0 / weightp=2 / keyint=230 / keyint_min=23 / scenecut=40 / intra_refresh=0 / rc_lookahead=60 / rc=2pass / mbtree=1 / bitrate=3000 / ratetol=1.0 / qcomp=0.70 / qpmin=1 / qpmax=61 / qpstep=4 / cplxblur=20.0 / qblur=0.5 / ip_ratio=1.40 / aq=2:0.80
Дата кодирования : UTC 2012-02-18 18:13:31
Дата пометки : UTC 2012-02-18 18:16:02
Аудио
Идентификатор : 2
Формат : AAC
Формат/Информация : Advanced Audio Codec
Профиль формата : LC
Идентификатор кодека : 40
Продолжительность : 2 ч. 35 м.
Вид битрейта : Переменный
Битрейт : 164 Кбит/сек
Максимальный битрейт : 284 Кбит/сек
Канал(ы) : 2 канала(ов)
Расположение каналов : Front: L R
Частота : 48,0 КГц
Метод сжатия : С потерями
Размер потока : 183 Мбайт (5%)
Язык : Russian
Дата кодирования : UTC 2012-02-18 18:13:31
Дата пометки : UTC 2012-02-18 18:16:11
Текст
Идентификатор : 4
Формат : Apple text
Идентификатор кодека : text
Продолжительность : 2 ч. 35 м.
Вид битрейта : Постоянный
Битрейт : 0
Размер потока : 408 байт (0%)
Дата кодирования : UTC 2012-03-09 16:44:26
Дата пометки : UTC 2012-03-09 16:44:26
Меню
00:00:00.000 : Chapter 01
00:14:49.625 : Chapter 02
00:20:59.333 : Chapter 03
00:32:48.875 : Chapter 04
00:42:51.416 : Chapter 05
00:54:17.750 : Chapter 06
00:59:01.875 : Chapter 07
01:09:39.583 : Chapter 08
01:19:01.625 : Chapter 09
01:27:46.250 : Chapter 10
01:40:40.250 : Chapter 11
01:52:52.583 : Chapter 12
01:58:55.833 : Chapter 13
02:12:01.833 : Chapter 14
02:26:09.541 : Chapter 15
02:32:13.750 : Chapter 16
02:35:39.958 : Chapter 17

Скриншоты



Показать сообщения:    

Текущее время: 13-Дек 09:31

Часовой пояс: UTC ± 0


Вы не можете начинать темы
Вы не можете отвечать на сообщения
Вы не можете редактировать свои сообщения
Вы не можете удалять свои сообщения
Вы не можете голосовать в опросах
Вы не можете прикреплять файлы к сообщениям
Вы не можете скачивать файлы

!ВНИМАНИЕ!
Сайт не предоставляет электронные версии произведений, а занимается лишь коллекционированием и каталогизацией ссылок, присылаемых и публикуемых на форуме нашими читателями. Если вы являетесь правообладателем какого-либо представленного материала и не желаете, чтобы ссылка на него находилась в нашем каталоге, свяжитесь с нами, и мы незамедлительно удалим ее. Файлы для обмена на трекере предоставлены пользователями сайта, и администрация не несет ответственности за их содержание. Просьба не заливать файлы, защищенные авторскими правами, а также файлы нелегального содержания!