Важное объявление!
У Нас Все раздачи мультитрекерные, при нуле пиров в релизах, можете смело вставать на закачку!
 
Автор Сообщение

HUNTER

Стаж:
4 года 9 месяцев
Сообщений:
65013

Репутация: 101

[+] [-]
Вне форума [Профиль] [ЛС]

Жила-была девочка / Сумасшедший дом / Плоть и чудовище / Напуганый до смерти / There Was A Little Girl / Madhouse / Flesh and the Beast / Scared to Death
Страна: Италия, США
Жанр: ужасы
Год выпуска: 1981
Продолжительность: 01:33:16
Перевод: Одноголосый закадровый Хэм
Cубтитры: английские
Оригинальная аудиодорожка: английский
Режиссер: Овидио Ассонитис (как Оливер Хеллман) / Ovidio G. Assonitis (as Oliver Hellman)
В ролях: Триш Эверли, Дэннис Робертсон, Майкл МакРэй, Эллисон Биггерс
Описание: Джулия Салливан работает учителем в школе для глухих детей и в жизни у неё всё складывается удачно — привлекательная внешность, уважаемая работа и постоянный бойфренд. Но мало кто знает про неприятный секрет — о сестре-близнеце Мэри. Пока они росли вместе, жестокая Мэри дразнила и издевалась над Джулией, и в результате та порвала с ней отношения. Сёстры не общались много лет, пока дядька не сообщил Джулии, что Мэри оказалась в клинике с болезнью, полностью обезобразившей её.
Доп. информация: Диск из собственной коллекции.
Бонусы: Интервью галерея
Сэмпл: http://sendfile.su/1133552
Тип релиза: DVD5 (Custom)
Контейнер: DVD-Video
Видео: NTSC 16:9 (720x480) VBR Auto Pan&Scan
Аудио: Russian (Dolby AC3, 192 Kbps, 2 ch)
Аудио 2: English (Dolby AC3, 224 Kbps, 2 ch)
Формат субтитров: prerendered (DVD/IDX+SUB)

DVDInfo

Size: 4.16 Gb ( 4 359 376 KBytes ) - DVD-5
Enabled regions: 1, 2, 3, 4, 5, 6, 7, 8
VTS_01 :
Play Length: 01:33:16
Video: NTSC 16:9 (720x480) VBR, Auto Pan&Scan
Audio:
Russian (Dolby AC3, 2 ch)
English (Dolby AC3, 2 ch)
Subtitles:
English
VTS_02 :
Play Length: 00:13:39
Video: NTSC 16:9 (720x480) VBR, Auto Pan&Scan
Audio:
English (Dolby AC3, 2 ch)
Subtitles:
English
Menu Video:
NTSC 16:9 (720x480) VBR
Auto Letterboxed
Menu Audio:
Not specified (Dolby AC3, 2 ch)
Menu Subtitles:
Not specified
Menu English Language Unit :
Root Menu
Subpicture Menu
Angle menu
Chapter (PTT) Menu

MediaInfo

General
Complete name : K:\There Was a Little Girl (1981)\VIDEO_TS\VTS_01_1.VOB
Format : MPEG-PS
File size : 1 024 MiB
Duration : 28mn 12s
Overall bit rate mode : Variable
Overall bit rate : 5 076 Kbps
Video
ID : 224 (0xE0)
Format : MPEG Video
Format version : Version 2
Format profile : Main@Main
Format settings, BVOP : Yes
Format settings, Matrix : Custom
Duration : 28mn 12s
Bit rate mode : Variable
Bit rate : 4 559 Kbps
Width : 720 pixels
Height : 480 pixels
Display aspect ratio : 16:9
Frame rate : 29.970 fps
Standard : NTSC
Color space : YUV
Chroma subsampling : 4:2:0
Bit depth : 8 bits
Compression mode : Lossy
Bits/(Pixel*Frame) : 0.440
Stream size : 920 MiB (90%)
Audio #1
ID : 189 (0xBD)-128 (0x80)
Format : AC-3
Format/Info : Audio Coding 3
Mode extension : CM (complete main)
Format settings, Endianness : Big
Muxing mode : DVD-Video
Duration : 26mn 38s
Bit rate mode : Constant
Bit rate : 192 Kbps
Channel(s) : 2 channels
Channel positions : Front: L R
Sampling rate : 48.0 KHz
Bit depth : 16 bits
Compression mode : Lossy
Delay relative to video : -1h 33mn
Stream size : 36.6 MiB (4%)
Audio #2
ID : 189 (0xBD)-129 (0x81)
Format : AC-3
Format/Info : Audio Coding 3
Mode extension : CM (complete main)
Format settings, Endianness : Big
Muxing mode : DVD-Video
Duration : 28mn 12s
Bit rate mode : Constant
Bit rate : 224 Kbps
Channel(s) : 2 channels
Channel positions : Front: L R
Sampling rate : 48.0 KHz
Bit depth : 16 bits
Compression mode : Lossy
Delay relative to video : -142ms
Stream size : 45.2 MiB (4%)
Menu

Постеры и обложка

Скриншоты меню


_________________
Показать сообщения:    

Текущее время: Сегодня 23:14

Часовой пояс: GMT



Вы не можете начинать темы
Вы не можете отвечать на сообщения
Вы не можете редактировать свои сообщения
Вы не можете удалять свои сообщения
Вы не можете голосовать в опросах
Вы не можете прикреплять файлы к сообщениям
Вы не можете скачивать файлы