Важное объявление!
У Нас Все раздачи мультитрекерные, при нуле пиров в релизах, можете смело вставать на закачку!
 
Автор Сообщение

HUNTER

Стаж:
4 года 7 месяцев
Сообщений:
61460

Репутация: 101

[+] [-]
Вне форума [Профиль] [ЛС]

Жилая комната / The Bed Sitting Room-
Страна: Великобритания
Студия: Oscar Lewenstein Productions
Жанр: фантастика, комедия
Год выпуска: 1969
Продолжительность: 01:27:28-Перевод: Профессиональный (двухголосый закадровый) НТВ+ | Ольга Плетнёва, Михаил Тихонов
Cубтитры: нет
Оригинальная аудиодорожка: английский-Режиссер: Ричард Лестер / Richard Lester
В ролях: Рита Ташингэм, Ральф Ричардсон, Питер Кук, Дадли Мур, Спайк Миллиган, Майкл Хордерн, Рой Киннер, Ричард Уорвик, Артур Лоу, Мона Уошборн...- | Релиз: -Описание: Три-четыре года спустя после досадного недоразумения между ядерными державами двадцать человек, переживших двухминутный апокалипсис, продолжают заниматься своими повседневными делами среди обломков дорических и ионических колонн.-Семпл: http://sendfile.su/1141150-Тип релиза: HDTV 1080i
Контейнер: TS
Видео: 1920x1080i (16:9), 25.000 fps, AVC, ~5816 Kbps, 0.112 bits/pixel
Аудио 1: Русский, 48.0 KHz, MPEG-1 Audio layer 2, 2 ch, 192 kbps
Аудио 2: English, 48.0 KHz, MPEG-1 Audio layer 2, 2 ch, 192 kbps

MediaInfo

GeneralID : 1 (0x1)Complete name : The Bed Sitting Room 1969 MGMHD 1080i.rus.eng.tsFormat : MPEG-TSFile size : 3.99 GiBDuration : 1h 27mnOverall bit rate mode : VariableOverall bit rate : 6 526 KbpsMaximum Overall bit rate : 35.5 Mbps
VideoID : 4113 (0x1011)Menu ID : 1 (0x1)Format : AVCFormat/Info : Advanced Video CodecFormat profile : Main@L4Format settings, CABAC : YesFormat settings, ReFrames : 4 framesCodec ID : 27Duration : 1h 27mnBit rate : 5 816 KbpsWidth : 1 920 pixelsHeight : 1 080 pixelsDisplay aspect ratio : 16:9Frame rate : 25.000 fpsStandard : ComponentColor space : YUVChroma subsampling : 4:2:0Bit depth : 8 bitsScan type : InterlacedScan order : Top Field FirstBits/(Pixel*Frame) : 0.112Stream size : 3.55 GiB (89%)Color range : LimitedColor primaries : BT.709Transfer characteristics : BT.709Matrix coefficients : BT.709
Audio #1ID : 4352 (0x1100)Menu ID : 1 (0x1)Format : MPEG AudioFormat version : Version 1Format profile : Layer 2Codec ID : 4Duration : 1h 27mnBit rate mode : ConstantBit rate : 192 KbpsChannel(s) : 2 channelsSampling rate : 48.0 KHzCompression mode : LossyStream size : 120 MiB (3%)Language : Russian
Audio #2ID : 4353 (0x1101)Menu ID : 1 (0x1)Format : MPEG AudioFormat version : Version 1Format profile : Layer 2Codec ID : 4Duration : 1h 27mnBit rate mode : ConstantBit rate : 192 KbpsChannel(s) : 2 channelsSampling rate : 48.0 KHzCompression mode : LossyStream size : 120 MiB (3%)Language : English

_________________
Показать сообщения:    

Текущее время: Сегодня 10:49

Часовой пояс: GMT



Вы не можете начинать темы
Вы не можете отвечать на сообщения
Вы не можете редактировать свои сообщения
Вы не можете удалять свои сообщения
Вы не можете голосовать в опросах
Вы не можете прикреплять файлы к сообщениям
Вы не можете скачивать файлы
Наши партнеры: интернет магазин Ивановского трикотажа textilla.ru