Важное объявление!
У Нас Все раздачи мультитрекерные, при нуле пиров в релизах, можете смело вставать на закачку!
 
Автор Сообщение

HUNTER

Стаж:
4 года 8 месяцев
Сообщений:
61998

Репутация: 101

[+] [-]
Вне форума [Профиль] [ЛС]

Образ жизни / The Living
Страна: США
Студия: Shooting Films
Жанр: триллер
Год выпуска: 2014
Продолжительность: 01:31:40
Перевод: Любительский (двухголосый закадровый) [для ColdFilm]
Cубтитры: английские
Оригинальная аудиодорожка: английский
Режиссер: Джек Брайан / Jack Bryan
В ролях: Фрэн Кранц, Джоселин Донахью, Кенни Вормолд, Крис Малки, Джоэль Картер, Эрин Каммингс, Николь Робинсон, Энди Сандберг, Brian McMinimee, Дэниэл Дорриан, Дэйв Вейдлер, Стив Кавано, Лоутон Пасека
Описание: Выслушивая надежды и упрёки от матери и советы от друга, Гордон, как единственный мужчина в семье, решает принять меры по защите своей сестры. За незначительные накопленные деньги на новый автомобиль он нанимает старого уголовника, чтобы убить мужа своей сестры за жестокое её избиение, но предпринятые меры начинают двигаться в шокирующем направлении и оказываются необратимыми.- -Тип релиза: WEB-DL 720p
Контейнер: MKV
Видео: MPEG-4 AVC Video, 1280x536 / 2,40:1 (16:9) / ~3882 kbps / 23,976 fps / Main@L3.1
Аудио 1: Russian: AC3, 6 ch, 384 kbps, 48 kHz
Аудио 2: English: AC3, 6 ch, 384 kbps, 48 kHz
Формат субтитров: softsub (SRT)
Главы:

MediaInfo

Общее
Уникальный идентификатор : 240573574279942490297083872003806624847 (0xB4FCC8F9427A2203A7F1B8B2B8C27C4F)
Полное имя : N:\Образ жизни 2014.WEB-DL.720p.ЛД.Eng.mkv
Формат : Matroska
Версия формата : Version 4 / Version 2
Размер файла : 3,04 Гбайт
Продолжительность : 1 ч. 31 м.
Общий поток : 4745 Кбит/сек
Название фильма : The Living (2014)
Дата кодирования : UTC 2015-05-26 10:51:33
Программа кодирования : mkvmerge v7.8.0 ('River Man') 32bit built on Mar 27 2015 16:18:02
Библиотека кодирования : libebml v1.3.1 + libmatroska v1.4.2
Видео
Идентификатор : 1
Формат : AVC
Формат/Информация : Advanced Video Codec
Профиль формата : Main@L3.1
Параметр CABAC формата : Нет
Параметр ReFrames формата : 2 кадра
Идентификатор кодека : V_MPEG4/ISO/AVC
Продолжительность : 1 ч. 31 м.
Битрейт : 3882 Кбит/сек
Ширина : 1280 пикселей
Высота : 536 пикселей
Соотношение сторон : 2,40:1
Режим частоты кадров : Постоянный
Частота кадров : 23,976 кадра/сек
Цветовое пространство : YUV
Субдискретизация насыщенности : 4:2:0
Битовая глубина : 8 бит
Тип развёртки : Прогрессивная
Бит/(Пиксели*Кадры) : 0.236
Размер потока : 2,49 Гбайт (82%)
Язык : English
Default : Да
Forced : Нет
Основные цвета : BT.709
Характеристики трансфера : BT.709
Коэффициенты матрицы : BT.709
colour_range : Limited
Аудио #1
Идентификатор : 2
Формат : AC-3
Формат/Информация : Audio Coding 3
Расширение режима : CM (complete main)
Параметр Endianness формата : Big
Идентификатор кодека : A_AC3
Продолжительность : 1 ч. 31 м.
Вид битрейта : Постоянный
Битрейт : 384 Кбит/сек
Каналы : 6 каналов
Расположение каналов : Front: L C R, Side: L R, LFE
Частота : 48,0 КГц
Битовая глубина : 16 бит
Метод сжатия : С потерями
Размер потока : 252 Мбайт (8%)
Заголовок : AC3 6ch 384kbps - двухголосый
Язык : Russian
Default : Да
Forced : Нет
Аудио #2
Идентификатор : 3
Формат : AC-3
Формат/Информация : Audio Coding 3
Расширение режима : CM (complete main)
Параметр Endianness формата : Big
Идентификатор кодека : A_AC3
Продолжительность : 1 ч. 31 м.
Вид битрейта : Постоянный
Битрейт : 384 Кбит/сек
Каналы : 6 каналов
Расположение каналов : Front: L C R, Side: L R, LFE
Частота : 48,0 КГц
Битовая глубина : 16 бит
Метод сжатия : С потерями
Размер потока : 252 Мбайт (8%)
Заголовок : AC3 6ch 384kbps - original
Язык : English
Default : Нет
Forced : Нет
Текст
Идентификатор : 4
Формат : UTF-8
Идентификатор кодека : S_TEXT/UTF8
Идентификатор кодека/Информация : UTF-8 Plain Text
Язык : English
Default : Нет
Forced : Нет
Меню
00:00:00.000 : en:Chapter 1
00:11:33.000 : en:Chapter 2
00:18:41.000 : en:Chapter 3
00:25:38.000 : en:Chapter 4
00:37:22.000 : en:Chapter 5
00:49:47.000 : en:Chapter 6
00:59:02.000 : en:Chapter 7
01:04:59.000 : en:Chapter 8
01:16:26.000 : en:Chapter 9
01:23:46.000 : en:Chapter 10
01:29:03.000 : en:Chapter 11

_________________
Показать сообщения:    

Текущее время: Сегодня 00:28

Часовой пояс: GMT



Вы не можете начинать темы
Вы не можете отвечать на сообщения
Вы не можете редактировать свои сообщения
Вы не можете удалять свои сообщения
Вы не можете голосовать в опросах
Вы не можете прикреплять файлы к сообщениям
Вы не можете скачивать файлы
Наши партнеры: интернет магазин Ивановского трикотажа textilla.ru