Ивановский Торрент трекер
Яндекс.Погода
 

[Цитировать]
HUNTER

Живые :Стремящиеся выжить / Живые: Двадцать лет спустя /Alive: The Miracle of the Andes /Alive: 20 Years Later
Дата/Год выпуска: 15 января / 1993
Страна: США
Жанр: Документальный
Продолжительность: 00:47:46
Перевод: Авторский (одноголосый закадровый) А. Гаврилов
Режиссер: Джилл Фуллертон-Смит / Jill Fullerton-Smith
Описание: Эта потрясающая до глубины души, подлинная история произошла осенью 1972 года в пятницу тринадцатого (!) октября. В этот день над Андами потерпел катастрофу авиалайнер, на борту которого находилась школьная сборная по регби из Уругвая. Самолет рухнул на высокогорное плато, которое было полностью отрезано от внешнего мира. Здесь, среди дикой стужи и трупов, горстке оставшихся в живых школьников предстоял жестокий, нечеловеческий тест на выживание. Семьдесят два бесконечных, мучительных дня молодые люди боролись за свою жизнь. Убежищем им служили обломки самолета, пищей - тела погибших товарищей. Иногда приходится превратиться в зверя, чтобы остаться человеком... Фильм является подробным описанием этих ужасных событий.
Доп. информация: За звуковую дорожку спасибо Evil ED 86
Сэмпл: https://www.sendspace.com/file/xcw8g0
качество: DVDRip
формат: AVI
Видео: XviD MPEG-4 , 640x480 (1.33:1) , 25.000 fps , 1 853 Kbps
Аудио: АC3 , 48 kHz , 192.00 kbps avg , 2/0 (L,R) ch

MediaInfo

Complete name Живые 20 лет спустя 1993.aviFormat : AVIFormat/Info : Audio Video InterleaveFile size : 702 MiBDuration : 47mn 46sOverall bit rate : 2 055 KbpsWriting application : VirtualDubMod 1.5.10.3 | www.virtualdub-fr.org || (build 2550/release)Writing library : VirtualDub build 35491/release
VideoID : 0Format : MPEG-4 VisualFormat profile : Advanced Simple@L5Format settings, BVOP : 1Format settings, QPel : NoFormat settings, GMC : No warppointsFormat settings, Matrix : CustomCodec ID : XVIDCodec ID/Hint : XviDDuration : 47mn 46sBit rate : 1 853 KbpsWidth : 640 pixelsHeight : 480 pixelsDisplay aspect ratio : 4:3Frame rate : 25.000 fpsColor space : YUVChroma subsampling : 4:2:0Bit depth : 8 bitsScan type : ProgressiveCompression mode : LossyBits/(Pixel*Frame) : 0.241Stream size : 633 MiB (90%)Writing library : XviD 73
AudioID : 1Format : AC-3Format/Info : Audio Coding 3Mode extension : CM (complete main)Format settings, Endianness : BigCodec ID : 2000Duration : 47mn 46sBit rate mode : ConstantBit rate : 192 KbpsChannel(s) : 2 channelsChannel positions : Front: L RSampling rate : 48.0 KHzFrame rate : 31.250 fps (1536 spf)Compression mode : LossyStream size : 65.6 MiB (9%)Alignment : Aligned on interleavesInterleave, duration : 40 ms (1.00 video frame)Interleave, preload duratio : 512 ms

Скриншоты



Показать сообщения:    

Текущее время: 15-Дек 14:21

Часовой пояс: UTC ± 0


Вы не можете начинать темы
Вы не можете отвечать на сообщения
Вы не можете редактировать свои сообщения
Вы не можете удалять свои сообщения
Вы не можете голосовать в опросах
Вы не можете прикреплять файлы к сообщениям
Вы не можете скачивать файлы

!ВНИМАНИЕ!
Сайт не предоставляет электронные версии произведений, а занимается лишь коллекционированием и каталогизацией ссылок, присылаемых и публикуемых на форуме нашими читателями. Если вы являетесь правообладателем какого-либо представленного материала и не желаете, чтобы ссылка на него находилась в нашем каталоге, свяжитесь с нами, и мы незамедлительно удалим ее. Файлы для обмена на трекере предоставлены пользователями сайта, и администрация не несет ответственности за их содержание. Просьба не заливать файлы, защищенные авторскими правами, а также файлы нелегального содержания!