Важное объявление!
У Нас Все раздачи мультитрекерные, при нуле пиров в релизах, можете смело вставать на закачку!
 
Автор Сообщение

HUNTER

Стаж:
4 года 8 месяцев
Сообщений:
62044

Репутация: 101

[+] [-]
Вне форума [Профиль] [ЛС]

Жестокий / Brutal-
Год выпуска: 2012
Страна: США
Жанр: криминал
Продолжительность: 01:29:36
Перевод: Профессиональный (одноголосый закадровый)-Режиссер: Камаль Ахмед
Сценарий: Камаль Ахмед
Продюсер: Камаль Ахмед, Steve Leventeris, Стюарт Элсон
Оператор: Том Анджелло
Композитор: Тимо Эллистон
Монтаж: Vito DeSario-В ролях: Давид Дастмалчян / David Dastmalchian (Antonio Scarafini), Анджело Бонсигнор / Angelo Bonsignore (John), Джереми Люк / Jeremy Luke (в титрах: Jeremy Luc) (Mike), Артур Дж. Наскарелла / Arthur J. Nascarella (Frank Bonadello), Марк Лав / Mark Love (Jimmy), Кевин Корригэн / Kevin Corrigan (The Head), Федерико Кастеллуччо / Federico Castelluccio (Kastriot Morina), Питер Грин / Peter Greene (Carlo Morello), Натали Аллен / Natalie Allen (Natalie), Rosario Aveni (Bocci ball player)
-Описание: Четверо безработных парней из Бруклина затевают перепалку с пассажирами автомобиля, перегородившего им проезд. Один из пассажиров оказывается сборщиком денег для мафии, и очень скоро друзьям приходится горько пожалеть об инциденте…-Премьера (мир): 20 августа 2012
Рейтинг:-Качество: PDTVRip
Формат: AVI
Видео кодек: XviD
Аудио кодеk: AC3
Видео: 720x400 (1.80:1), 25 fps, XviD build 50 ~1983 kbps avg, 0.28 bit/pixel
Аудио: Аудио #1: 48 kHz, AC3 Dolby Digital, 2/0 (L,R) ch, ~192 kbps
-

МедиаИнфо

Код: copyText_writeLink('this.parentNode.parentNode.nextSibling.nextSibling'); General
Complete name : Zhestkij.2012.P.IPTVRip.1400MB.avi
Format : AVI
Format/Info : Audio Video Interleave
File size : 1.37 GiB
Duration : 1h 29mn
Overall bit rate : 2 185 Kbps
Movie name : Brutal (2012)
Director : D!mka
Genre : Action
Writing application : VirtualDubMod 1.5.10.2 (build 2540/release)
Original source form/Name : Movie
Copyright : http://torrentsmd.com/
Video
ID : 0
Format : MPEG-4 Visual
Format profile : Advanced Simple@L5
Format settings, BVOP : Yes
Format settings, QPel : No
Format settings, GMC : No warppoints
Format settings, Matrix : Default (MPEG)
Codec ID : XVID
Codec ID/Hint : XviD
Duration : 1h 29mn
Bit rate : 1 984 Kbps
Width : 720 pixels
Height : 400 pixels
Display aspect ratio : 16:9
Frame rate : 25.000 fps
Color space : YUV
Chroma subsampling : 4:2:0
Bit depth : 8 bits
Scan type : Progressive
Bits/(Pixel*Frame) : 0.276
Stream size : 1.24 GiB (91%)
Writing library : XviD 1.2.1 (UTC 2008-12-04)
Audio
ID : 1
Format : AC-3
Format/Info : Audio Coding 3
Mode extension : CM (complete main)
Codec ID : 2000
Duration : 1h 29mn
Bit rate mode : Constant
Bit rate : 192 Kbps
Channel(s) : 2 channels
Channel positions : Front: L R
Sampling rate : 48.0 KHz
Bit depth : 16 bits
Video delay : 20ms
Stream size : 123 MiB (9%)
Alignment : Split accross interleaves
Interleave, duration : 40 ms (1.00 video frame)
Interleave, preload duration : 500 ms
-
-- -

_________________
Показать сообщения:    

Текущее время: Сегодня 22:50

Часовой пояс: GMT



Вы не можете начинать темы
Вы не можете отвечать на сообщения
Вы не можете редактировать свои сообщения
Вы не можете удалять свои сообщения
Вы не можете голосовать в опросах
Вы не можете прикреплять файлы к сообщениям
Вы не можете скачивать файлы
Наши партнеры: интернет магазин Ивановского трикотажа textilla.ru