Ивановский Торрент трекер
Яндекс.Погода
 

[Цитировать]
HUNTER

Жестокие люди / Fierce People Страна: США, Канада
Студия: Industry Entertainment, Lions Gate Entertainment, Lions Gate Films Inc.
Жанр: драма
Год выпуска: 2005
Продолжительность: 01:51:56
Перевод 1: Профессиональный (дублированный) [UMP/GFS - 2006, DVD R5 - «Lizard Cinema»]
Перевод 2: Профессиональный (двухголосый закадровый)
Cубтитры: русские, английские
Оригинальная аудиодорожка: английский
Режиссер: Гриффин Данн / Griffin Dunne
В ролях: Дайан Лэйн, Антон Ельчин, Дональд Сазерленд, Крис Эванс, Кристен Стюарт, Пас де ла Уэрта, Блу Манкума, Элизабет Перкинс, Кристофер Шайер, Гари Чок, Райан МакДональд, Кейли Дей, Аарон Брукс, Тич Грант, Уилл Лиман
Описание: 16-летний юноша Финн Эрл мечтает сбежать из душной квартирки в Нью-Йорке, где он живёт со своей матерью Лиз, в Южную Америку, где его отец-антрополог, которого он никогда не встречал, изучает племя, за безжалостные обычаи и дикие нравы известное под названием «жестокие люди». Однако планам не суждено сбыться — его арестовывают, когда он хочет помочь своей матери-массажистке. Лиз решает наладить наконец свою жизнь и жизнь сына и принимает приглашение своего бывшего клиента, стареющего миллиардера Огдена С. Озборна пожить и поработать в его загородном поместье.
В окружении богатства, власти и роскоши, юноша находит для себя много таинственного и куда более опасного, нежели представители дикого племени. Пока Лиз пытается справиться со своей нарко-зависимостью и вернуть любовь и доверие сына, Финн влюбляется в Майю, внучку Озборна и начинает дружить с её старшим братом Брайсом, заслужив благосклонность всей семьи. Однако Лиз не подозревала, что ее благополучие и радость вызывает у кого-то жгучую зависть, ревность и желание мстить. Таинственный враг знает, как дорог Лиз ее ребенок, и наносит удар, чтобы показать, что она и ее сын здесь — нежеланные гости.- -Тип релиза: WEB-DL 720p
Контейнер: MKV
Видео: MPEG-4 AVC Video, 1280x692 / 1,85:1 (16:9) / ~4160 kbps / 23,976 fps / High@L3.1
Аудио 1: Russian: DTS, 5.1 ch, 24-bit, 755 kbps, 48 kHz | дублированный
Аудио 2: Russian: AC3, 2.0 ch, 224 kbps, 48 kHz | двухголосый
Аудио 3: English: AC3, 6 ch, 384 kbps, 48 kHz
Формат субтитров: softsub (SRT)
Главы

MediaInfo

Общее
Уникальный идентификатор : 238039250210574810309941634369688275364 (0xB314B126634EB18B94197B51A18589A4)
Полное имя : N:\Жестокие люди 2005.WEB-DL.720p\Жестокие люди 2005.WEB-DL.720p.ДБ.ПД.Eng.mkv
Формат : Matroska
Версия формата : Version 4 / Version 2
Размер файла : 4,32 Гбайт
Продолжительность : 1 ч. 51 м.
Общий поток : 5525 Кбит/сек
Название фильма : Fierce People (2005)
Дата кодирования : UTC 2014-09-29 16:48:41
Программа кодирования : mkvmerge v6.9.1 ('Blue Panther') 32bit built on Apr 18 2014 18:15:44
Библиотека кодирования : libebml v1.3.0 + libmatroska v1.4.1
Видео
Идентификатор : 1
Формат : AVC
Формат/Информация : Advanced Video Codec
Профиль формата : High@L3.1
Параметр CABAC формата : Нет
Параметр ReFrames формата : 2 кадра
Идентификатор кодека : V_MPEG4/ISO/AVC
Продолжительность : 1 ч. 51 м.
Битрейт : 4052 Кбит/сек
Ширина : 1280 пикселей
Высота : 692 пикселя
Соотношение сторон : 1,85:1
Режим частоты кадров : Постоянный
Частота кадров : 23,976 кадра/сек
Цветовое пространство : YUV
Субдискретизация насыщенности : 4:2:0
Битовая глубина : 8 бит
Тип развёртки : Прогрессивная
Бит/(Пиксели*Кадры) : 0.191
Размер потока : 3,17 Гбайт (73%)
Язык : English
Default : Да
Forced : Нет
Основные цвета : BT.709
Характеристики трансфера : BT.709
Коэффициенты матрицы : BT.709
Аудио #1
Идентификатор : 2
Формат : DTS
Формат/Информация : Digital Theater Systems
Режим : 16
Параметр Endianness формата : Big
Идентификатор кодека : A_DTS
Продолжительность : 1 ч. 51 м.
Вид битрейта : Постоянный
Битрейт : 755 Кбит/сек
Каналы : 6 каналов
Расположение каналов : Front: L C R, Side: L R, LFE
Частота : 48,0 КГц
Битовая глубина : 24 бит
Метод сжатия : С потерями
Размер потока : 604 Мбайт (14%)
Заголовок : DTS 5.1ch 24-bit 755kbps - дубляж (UMP/GFS - 2006, DVD9.R5 - «Lizard Cinema» - Super jewel case)
Язык : Russian
Default : Да
Forced : Нет
Аудио #2
Идентификатор : 3
Формат : AC-3
Формат/Информация : Audio Coding 3
Расширение режима : CM (complete main)
Параметр Endianness формата : Big
Идентификатор кодека : A_AC3
Продолжительность : 1 ч. 51 м.
Вид битрейта : Постоянный
Битрейт : 224 Кбит/сек
Каналы : 2 канала
Расположение каналов : Front: L R
Частота : 48,0 КГц
Битовая глубина : 16 бит
Метод сжатия : С потерями
Размер потока : 179 Мбайт (4%)
Заголовок : AC3 2.0ch 224kbps - двухголосый
Язык : Russian
Default : Нет
Forced : Нет
Аудио #3
Идентификатор : 4
Формат : AC-3
Формат/Информация : Audio Coding 3
Расширение режима : CM (complete main)
Параметр Endianness формата : Big
Идентификатор кодека : A_AC3
Продолжительность : 1 ч. 51 м.
Вид битрейта : Постоянный
Битрейт : 384 Кбит/сек
Каналы : 6 каналов
Расположение каналов : Front: L C R, Side: L R, LFE
Частота : 48,0 КГц
Битовая глубина : 16 бит
Метод сжатия : С потерями
Размер потока : 307 Мбайт (7%)
Заголовок : AC3 6ch 384kbps - original
Язык : English
Default : Нет
Forced : Нет
Текст #1
Идентификатор : 5
Формат : UTF-8
Идентификатор кодека : S_TEXT/UTF8
Идентификатор кодека/Информация : UTF-8 Plain Text
Язык : Russian
Default : Нет
Forced : Нет
Текст #2
Идентификатор : 6
Формат : UTF-8
Идентификатор кодека : S_TEXT/UTF8
Идентификатор кодека/Информация : UTF-8 Plain Text
Язык : English
Default : Нет
Forced : Нет
Меню
00:00:00.000 : en: 00:00:00
00:08:59.128 : en: 00:08:59
00:17:11.700 : en: 00:17:11
00:25:26.648 : en: 00:25:26
00:33:53.234 : en: 00:33:53
00:40:26.165 : en: 00:40:26
00:51:06.383 : en: 00:51:06
01:05:38.872 : en: 01:05:38
01:14:25.644 : en: 01:14:25
01:22:13.817 : en: 01:22:13
01:36:07.726 : en: 01:36:07
01:45:05.801 : en: 01:45:05

-

-

Заменённый (старый)

MediaInfo старого
Общее
Уникальный идентификатор : 186525984092668767996205277766860852435 (0x8C53990A898E0C29A1D855535476CCD3)
Полное имя : Жестокие люди 2005.WEB-DL.720p.ДБ.ПД.Eng.mkv
Формат : Matroska
Версия формата : Version 4 / Version 2
Размер файла : 3,90 Гбайт
Продолжительность : 1 ч. 51 м.
Общий поток : 4994 Кбит/сек
Название фильма : Fierce People (2005)
Дата кодирования : UTC 2013-09-07 12:15:05
Программа кодирования : mkvmerge v6.3.0 ('You can't stop me!') built on Jun 28 2013 20:09:41
Библиотека кодирования : libebml v1.3.0 + libmatroska v1.4.0
Видео
Идентификатор : 1
Формат : AVC
Формат/Информация : Advanced Video Codec
Профиль формата : High@L3.1
Параметр CABAC формата : Нет
Параметр ReFrames формата : 2 кадра
Идентификатор кодека : V_MPEG4/ISO/AVC
Продолжительность : 1 ч. 51 м.
Битрейт : 4062 Кбит/сек
Ширина : 1280 пикселей
Высота : 692 пикселя
Соотношение сторон : 1,85:1
Режим частоты кадров : Постоянный
Частота кадров : 23,976 кадра/сек
Цветовое пространство : YUV
Субдискретизация насыщенности : 4:2:0
Битовая глубина : 8 бит
Тип развёртки : Прогрессивная
Бит/(Пиксели*Кадры) : 0.191
Размер потока : 3,18 Гбайт (81%)
Язык : English
Default : Да
Forced : Нет
Основные цвета : BT.709
Характеристики трансфера : BT.709
Коэффициенты матрицы : BT.709
Аудио #1
Идентификатор : 2
Формат : AC-3
Формат/Информация : Audio Coding 3
Расширение режима : CM (complete main)
Параметр Endianness формата : Big
Идентификатор кодека : A_AC3
Продолжительность : 1 ч. 51 м.
Вид битрейта : Постоянный
Битрейт : 224 Кбит/сек
Каналы : 6 каналов
Расположение каналов : Front: L C R, Side: L R, LFE
Частота : 48,0 КГц
Битовая глубина : 16 бит
Метод сжатия : С потерями
Размер потока : 179 Мбайт (4%)
Заголовок : AC3 6.0ch 224kbps - дубляж (UMP/GFS - 2006, R5 - «Lizard Cinema»)
Язык : Russian
Default : Да
Forced : Нет
Аудио #2
Идентификатор : 3
Формат : AC-3
Формат/Информация : Audio Coding 3
Расширение режима : CM (complete main)
Параметр Endianness формата : Big
Идентификатор кодека : A_AC3
Продолжительность : 1 ч. 51 м.
Вид битрейта : Постоянный
Битрейт : 224 Кбит/сек
Каналы : 2 канала
Расположение каналов : Front: L R
Частота : 48,0 КГц
Битовая глубина : 16 бит
Метод сжатия : С потерями
Размер потока : 179 Мбайт (4%)
Заголовок : AC3 2.0ch 224kbps - двухголосый
Язык : Russian
Default : Нет
Forced : Нет
Аудио #3
Идентификатор : 4
Формат : AC-3
Формат/Информация : Audio Coding 3
Расширение режима : CM (complete main)
Параметр Endianness формата : Big
Идентификатор кодека : A_AC3
Продолжительность : 1 ч. 51 м.
Вид битрейта : Постоянный
Битрейт : 384 Кбит/сек
Каналы : 6 каналов
Расположение каналов : Front: L C R, Side: L R, LFE
Частота : 48,0 КГц
Битовая глубина : 16 бит
Метод сжатия : С потерями
Размер потока : 307 Мбайт (8%)
Заголовок : AC3 6ch 384kbps - original
Язык : English
Default : Нет
Forced : Нет
Текст
Идентификатор : 5
Формат : UTF-8
Идентификатор кодека : S_TEXT/UTF8
Идентификатор кодека/Информация : UTF-8 Plain Text
Язык : Russian
Default : Нет
Forced : Нет
В дублированной звуковой дорожке каналы честные, но битрейт и спектр звука сильно ужат издателями DVD R5, что очень жаль, т.к. в фильме звучит хорошая музыка, но лучшего качества звука не нашлось (такой дубляж везде).
Каналы - Спектр -
Показать сообщения:    

Текущее время: 22-Окт 21:31

Часовой пояс: UTC - 1


Вы не можете начинать темы
Вы не можете отвечать на сообщения
Вы не можете редактировать свои сообщения
Вы не можете удалять свои сообщения
Вы не можете голосовать в опросах
Вы не можете прикреплять файлы к сообщениям
Вы не можете скачивать файлы

!ВНИМАНИЕ!
Сайт не предоставляет электронные версии произведений, а занимается лишь коллекционированием и каталогизацией ссылок, присылаемых и публикуемых на форуме нашими читателями. Если вы являетесь правообладателем какого-либо представленного материала и не желаете, чтобы ссылка на него находилась в нашем каталоге, свяжитесь с нами, и мы незамедлительно удалим ее. Файлы для обмена на трекере предоставлены пользователями сайта, и администрация не несет ответственности за их содержание. Просьба не заливать файлы, защищенные авторскими правами, а также файлы нелегального содержания!