Ивановский Торрент трекер
Яндекс.Погода
 

[Цитировать]
HUNTER

Жесткач / Порнуха / Хардкор / Hardcore
Год выпуска: 1979
Страна: США
Жанр: триллер, драма
Продолжительность: 01:47:40
Перевод: одноголосный закадровый (Никита Севастьянов)
Cубтитры: русские, английские
Оригинальная аудиодорожка: английская
Оглавление: 12 англоязычных глав
Режиссёр: Пол Шредер /Paul Schrader/
В ролях: Джордж К. Скотт /George C. Scott/, Питер Бойл /Peter Boyle/, Сизон Хабли /Season Hubley/, Дик Сарджент /Dick Sargent/, Леонард Гейнс /Leonard Gaines/, Дэйв Николс /Dave Nichols/, Гари Грэхэм /Gary Graham/, Ларри Блок /Larry Block/, Марк Алаймо /Marc Alaimo/
Описание:
Дочь богатого набожного бизнесмена пропадает во время поездки на каникулы. Полиция бессильна, отец убит горем. Проходит время, и в руки нанятого отцом частного детектива попадает плёнка, где девочка занимается сексом с двумя парнями. Отец в поисках дочери опускается «на дно»: бордели, притоны, секс-шопы, пип-шоу, сутенёры, сводницы, проститутки, порнопродюсеры…
Дополнительная информация:
IMDB User Rating→: 6.9/10 (4,690 votes)
Рейтинг фильма КиноПоиск.Ru→: 6.984 (123 голоса)
  • Оригинальная дорога, английские сабы и главы взяты с DVD R1;
  • В переводе Севастьянова в небольшом количестве присутствует ненормативная лексика;
  • В русских субтитрах исправлены орфография и пунктуация.
    Качество: WEB-DL
    Контейнер: MKV
    Видеопоток: 1280x720p, 23.976 fps, x264 ~4203 kbps
    Аудиопоток №1 (RUS): DD 2.0, 48 kHz, 192 kbps | одноголосный закадровый (Никита Севастьянов)
    Аудиопоток №2 (ENG): DD 2.0, 48 kHz, 192 kbps
    Субтитры №1 (RUS): SRT/UTF8 | Banteng
    Субтитры №2 (RUS): SRT/UTF8 | SICKSIST
    Субтитры №3 (ENG): SRT/UTF8
    Сэмпл: Яндекс.Диск→, multi-up→, nekaka→, sendspace→

MediaInfo

General
Unique ID                                : 219665993626105925681973305677436735270 (0xA54221A94027C5C1A131D3EBA3A0CF26)
Complete name                            : Hardcore.1979.720p.WEB-DL.H.264.DD.SRT.mkv
Format                                   : Matroska
Format version                           : Version 4 / Version 2
File size                                : 3.45 GiB
Duration                                 : 1h 47mn
Overall bit rate                         : 4 589 Kbps
Movie name                               : Hardcore (1979) 720p WEB-DL
Encoded date                             : UTC 2015-05-18 08:52:13
Writing application                      : mkvmerge v7.8.0 ('River Man') 64bit built on Mar 27 2015 16:31:37
Writing library                          : libebml v1.3.1 + libmatroska v1.4.2
DURATION                                 : 01:47:40.928000000
NUMBER_OF_FRAMES                         : 201904
NUMBER_OF_BYTES                          : 155062272
_STATISTICS_WRITING_APP                  : mkvmerge v7.8.0 ('River Man') 64bit built on Mar 27 2015 16:31:37
_STATISTICS_WRITING_DATE_UTC             : 2015-05-18 08:52:13
_STATISTICS_TAGS                         : BPS DURATION NUMBER_OF_FRAMES NUMBER_OF_BYTES
Video
ID                                       : 1
Format                                   : AVC
Format/Info                              : Advanced Video Codec
Format profile                           : High@L3.1
Format settings, CABAC                   : No
Format settings, ReFrames                : 2 frames
Codec ID                                 : V_MPEG4/ISO/AVC
Duration                                 : 1h 47mn
Bit rate                                 : 4 114 Kbps
Width                                    : 1 280 pixels
Height                                   : 720 pixels
Display aspect ratio                     : 16:9
Frame rate mode                          : Constant
Frame rate                               : 23.976 fps
Color space                              : YUV
Chroma subsampling                       : 4:2:0
Bit depth                                : 8 bits
Scan type                                : Progressive
Bits/(Pixel*Frame)                       : 0.186
Stream size                              : 3.09 GiB (90%)
Title                                    : 1280x720, 23.976 fps, x264 ~4203 kbps
Language                                 : English
Default                                  : Yes
Forced                                   : No
Color range                              : Limited
Color primaries                          : BT.709
Transfer characteristics                 : BT.709
Matrix coefficients                      : BT.709
Audio #1
ID                                       : 2
Format                                   : AC-3
Format/Info                              : Audio Coding 3
Mode extension                           : CM (complete main)
Format settings, Endianness              : Big
Codec ID                                 : A_AC3
Duration                                 : 1h 47mn
Bit rate mode                            : Constant
Bit rate                                 : 192 Kbps
Channel(s)                               : 2 channels
Channel positions                        : Front: L R
Sampling rate                            : 48.0 KHz
Bit depth                                : 16 bits
Compression mode                         : Lossy
Stream size                              : 148 MiB (4%)
Title                                    : RUS VO Н.Севастьянов DD 2.0, 48 kHz, 192 kbps
Language                                 : Russian
Default                                  : Yes
Forced                                   : No
Audio #2
ID                                       : 3
Format                                   : AC-3
Format/Info                              : Audio Coding 3
Mode extension                           : CM (complete main)
Format settings, Endianness              : Big
Codec ID                                 : A_AC3
Duration                                 : 1h 47mn
Bit rate mode                            : Constant
Bit rate                                 : 192 Kbps
Channel(s)                               : 2 channels
Channel positions                        : Front: L R
Sampling rate                            : 48.0 KHz
Bit depth                                : 16 bits
Compression mode                         : Lossy
Stream size                              : 148 MiB (4%)
Title                                    : ENG DD 2.0, 48 kHz, 192 kbps
Language                                 : English
Default                                  : No
Forced                                   : No
Text #1
ID                                       : 4
Format                                   : UTF-8
Codec ID                                 : S_TEXT/UTF8
Codec ID/Info                            : UTF-8 Plain Text
Title                                    : RUS Banteng SRT
Language                                 : Russian
Default                                  : No
Forced                                   : No
Text #2
ID                                       : 5
Format                                   : UTF-8
Codec ID                                 : S_TEXT/UTF8
Codec ID/Info                            : UTF-8 Plain Text
Title                                    : RUS SICKSIST SRT
Language                                 : Russian
Default                                  : No
Forced                                   : No
Text #3
ID                                       : 6
Format                                   : UTF-8
Codec ID                                 : S_TEXT/UTF8
Codec ID/Info                            : UTF-8 Plain Text
Title                                    : ENG SRT
Language                                 : English
Default                                  : No
Forced                                   : No
Menu
00:00:00.000                             : en:1. Start
00:12:26.079                             : en:2. Bad news from California
00:19:37.510                             : en:3. Stag film
00:31:34.392                             : en:4. Belly of the Beast
00:46:31.789                             : en:5. Infiltration
00:55:00.005                             : en:6. Undercover
01:03:43.862                             : en:7. Niki
01:11:18.357                             : en:8. San Diego
01:19:52.121                             : en:9. San Francisco
01:28:54.621                             : en:10. "I won't forget you."
01:34:39.883                             : en:11. Through Tod to Ratan
01:39:55.990                             : en:12. Pride

Скриншоты


Показать сообщения:    

Текущее время: 18-Окт 10:19

Часовой пояс: UTC - 1


Вы не можете начинать темы
Вы не можете отвечать на сообщения
Вы не можете редактировать свои сообщения
Вы не можете удалять свои сообщения
Вы не можете голосовать в опросах
Вы не можете прикреплять файлы к сообщениям
Вы не можете скачивать файлы

!ВНИМАНИЕ!
Сайт не предоставляет электронные версии произведений, а занимается лишь коллекционированием и каталогизацией ссылок, присылаемых и публикуемых на форуме нашими читателями. Если вы являетесь правообладателем какого-либо представленного материала и не желаете, чтобы ссылка на него находилась в нашем каталоге, свяжитесь с нами, и мы незамедлительно удалим ее. Файлы для обмена на трекере предоставлены пользователями сайта, и администрация не несет ответственности за их содержание. Просьба не заливать файлы, защищенные авторскими правами, а также файлы нелегального содержания!