Важное объявление!
У Нас Все раздачи мультитрекерные, при нуле пиров в релизах, можете смело вставать на закачку!
 
Автор Сообщение

HUNTER

Стаж:
4 года 9 месяцев
Сообщений:
65047

Репутация: 101

[+] [-]
Вне форума [Профиль] [ЛС]

"Женщина из убитой деревни", "Горсть песка", "Немой крик"
Год выпуска: 1975
Страна: СССР
Жанр: Хроникально-документальные фильмы-монологи о войне
Продолжительность: 00:27:45+00:09:47+00:10:30
Перевод: Не требуется
Русские субтитры: нет

Режиссер: Виктор Дашук
Описание: Три фильма о войне режиссера Виктора Дашука созданы все в один год - 1975. Это фильмы о людской боли, страдании, перенесенных жителями Белоруссии во время оккупации фашистскими полчищами...
Женщина из убитой деревни.
Хроникально-документальный фильм-монолог Ольги Андреевны Минич, жительницы деревни Хвойня Петриковского района Гомельской области, о ее трагической «одиссее» весной 1942 года, когда в течение нескольких недель фашисты планомерно уничтожали население целого района.
Горсть песка.
Хроникально-документальный фильм-монолог Акулины Семеновны Ивановой, чудом выжившей во время карательной операции фашистов в деревне Рудня Витебской области.
Немой крик.
Хроникально-документальный фильм-монолог людей, чья память время от времени взрывается нестерпимой болью пережитого.

Доп. информация
Релиз:
Исходный материал предоставил некто Андрей.
Автор релиза: pmv
Технические параметры по фильмам, по каждому в отдельности:
File: Женщина из убитой деревни (1975).avi
FileSize: 414.38 Mb ( 434 507 020 bytes )
Play length: 00:27:45.160 (41629 frames)
Video: 720x560 (1.29:1), 25 fps, XviD build 50 ~1981 kbps avg, 0.20 bit/pixel
Audio: 48 kHz, MPEG Layer 3, 1 ch, ~96.00 kbps avg
File: Горсть песка (1975).avi
FileSize: 149.28 Mb ( 156 532 864 bytes )
Play length: 00:09:47.559 (14689 frames)
Video: 720x560 (1.29:1), 25 fps, XviD build 50 ~2025 kbps avg, 0.20 bit/pixel
Audio: 48 kHz, MPEG Layer 3, 1 ch, ~96.00 kbps avg
File: Немой крик (1975).avi
FileSize: 159.81 Mb ( 167 571 568 bytes )
Play length: 00:10:30.960 (15774 frames)
Subtitles: Not Present
Video: 720x560 (1.29:1), 25 fps, XviD build 50 ~2018 kbps avg, 0.20 bit/pixel
Audio: 48 kHz, MPEG Layer 3, 1 ch, ~96.00 kbps avg
Сэмпл: http://multi-up.com/884696
качество: SATRip
формат: AVI
Видео: 720x560 (1.29:1), 25 fps, XviD build 50 ~2018 kbps avg, 0.20 bit/pixel
Аудио: 48 kHz, MPEG Layer 3, 1 ch, ~96.00 kbps avg

Список выпусков/серий

3 фильма:
1. Женщина из убитой деревни
2. Горсть песка
3. Немой крик

MediaInfo

Формат : AVI
Формат/Информация : Audio Video Interleave
Размер файла : 149 Мбайт
Продолжительность : 9 м. 47 с.
Общий поток : 2131 Кбит/сек
Программа кодирования : VirtualDubMod 1.5.10.3 | www.virtualdub-fr.org || (build 2550/release)
Библиотека кодирования : VirtualDub build 35475/release
Видео
Идентификатор : 0
Формат : MPEG-4 Visual
Профиль формата : Advanced Simple@L5
Параметр BVOP формата : 2
Параметр QPel формата : Нет
Параметр GMC формата : Без точки перехода
Параметр матрицы формата : Default (H.263)
Идентификатор кодека : XVID
Идентификатор кодека/Подсказка : XviD
Продолжительность : 9 м. 47 с.
Битрейт : 2025 Кбит/сек
Ширина : 720 пикселей
Высота : 560 пикселей
Соотношение сторон : 1,286
Частота кадров : 25,000 кадров/сек
Цветовое пространство : YUV
Субдискретизация насыщенности : 4:2:0
Битовая глубина : 8 бит
Тип развёртки : Прогрессивная
Метод сжатия : С потерями
Бит/(Пиксели*Кадры) : 0.201
Размер потока : 142 Мбайт (95%)
Библиотека кодирования : XviD 1.2.1 (UTC 2008-12-04)
Аудио
Идентификатор : 1
Формат : MPEG Audio
Версия формата : Version 1
Профиль формата : Layer 3
Идентификатор кодека : 55
Идентификатор кодека/Подсказка : MP3
Продолжительность : 9 м. 47 с.
Вид битрейта : Постоянный
Битрейт : 96,0 Кбит/сек
Каналы : 1 канал
Частота : 48,0 КГц
Метод сжатия : С потерями
Размер потока : 6,72 Мбайт (5%)
Выравнивание : Соединение по промежуткам
Продолжительность промежутка : 40 мс. (1,00 видеокадр)
Время предзагрузки промежутка : 504 мс.

Скриншоты

Горсть песка:

Женщина из убитой деревни

Немой крик

_________________
Показать сообщения:    

Текущее время: Сегодня 01:38

Часовой пояс: GMT



Вы не можете начинать темы
Вы не можете отвечать на сообщения
Вы не можете редактировать свои сообщения
Вы не можете удалять свои сообщения
Вы не можете голосовать в опросах
Вы не можете прикреплять файлы к сообщениям
Вы не можете скачивать файлы