Ивановский Торрент трекер
Яндекс.Погода
 

[Цитировать]
димитри37

Жена офицера
Год выпуска: 2013
Производство: Вертикаль фильм
Жанр: Мелодрама
Продолжительность:8 ~ 00:43:00
Субтитры: нет
Режиссёр: Сергей Басина
В ролях: Иван Стебунов, Ярослав Бойко, Валерия Ланская, Эмилия Спивак, Сергей Кошонин, Ирина Ракшина, Руслан Барабанов, Мария Валешная, Виталий Коваленко, Антон Гуляев, Алексей Федькин, Владимир Литвинов, Ирина Конопацкая, Полина Воробьева, Павел Гончаров, Дмитрий Мурашев, Анна Захарова, Андрей Павловец, Ульяна Марковская, Артем Анчуков, Наталья Шостак, Глеб Темнов, Герман Федулов, Ариана Андреева, Александр Разнатовский, Наталья Вершинина, Игорь Чигирь, Светлана Киреева, Григорий Фёдоров, Андрей Лёвин, Сергей Демидов и другие.
Описание: Описание: Молодая и амбициозная журналистка Лика отправляется в отдаленный гарнизон вслед за своим возлюбленным - призывником Денисом. Она решает написать разоблачительный материал о тотальном разложении армии и для этого устраивается в гарнизон продавщицей. Но жизнь в этом, на первый взгляд, тихом месте не обещает быть спокойной. Лике приходится включиться в опасные расследования, которые перевернут всю ее дальнейшую жизнь...
Качество: HDTVRip 720p [Рип с HDTV 1080i]
Формат: MKV
Видео кодек: H.264
Аудио кодек: MPEG Audio
Видео: x264, 1280 х 720 (16:9), 25,000 кадр/сек, ~ 3500 Кбит/сек
Аудио: MPEG Audio 48000Hz stereo 192 Кбит/сек
Сторонней рекламы нет!

MediaInfo

ОбщееУникальный идентификатор : 254745004029440031201850033308068738669 (0xBFA61A67AAC7B5528443A3C4A193F66D)Полное имя : E:\Downloads\55\Жена офицера HDTVRip 720p\Жена офицера_01_серия_HDTVRip_ 720p_by_Серый1779.mkvФормат : MatroskaРазмер файла : 1,13 ГбайтПродолжительность : 43 м.Общий поток : 3693 Кбит/секДата кодирования : UTC 2013-04-18 17:58:01Программа кодирования : mkvmerge v5.6.0 ('Kenya Kane') built on Jun 29 2012 15:01:44Библиотека кодирования : libebml v1.2.3 + libmatroska v1.3.0
ВидеоИдентификатор : 1Формат : AVCФормат/Информация : Advanced Video CodecПрофиль формата : High@L4.1Параметр CABAC формата : ДаПараметр ReFrames формата : 9 кадровИдентификатор кодека : V_MPEG4/ISO/AVCПродолжительность : 43 м.Битрейт : 3500 Кбит/секШирина : 1280 пикс.Высота : 720 пикс.Соотношение сторон : 16:9Частота кадров : 25,000 кадр/секЦветовое пространство : YUVПодвыборка цветности : 4:2:0Битовая глубина : 8 битТип развёртки : ПрогрессивнаяБит/(Пиксели*Кадры) : 0.152Размер потока : 1,05 Гбайт (93%)Библиотека кодирования : x264 core 125 r2200 999b753Настройки программы : cabac=1 / ref=9 / deblock=1:-2:-2 / analyse=0x3:0x133 / me=umh / subme=9 / psy=1 / psy_rd=1.10:0.15 / mixed_ref=1 / me_range=32 / chroma_me=1 / trellis=2 / 8x8dct=1 / cqm=0 / deadzone=21,11 / fast_pskip=0 / chroma_qp_offset=-3 / threads=3 / lookahead_threads=1 / sliced_threads=0 / nr=0 / decimate=1 / interlaced=0 / bluray_compat=0 / constrained_intra=0 / bframes=9 / b_pyramid=2 / b_adapt=2 / b_bias=0 / direct=3 / weightb=1 / open_gop=0 / weightp=2 / keyint=250 / keyint_min=25 / scenecut=40 / intra_refresh=0 / rc=2pass / mbtree=0 / bitrate=3500 / ratetol=1.0 / qcomp=0.60 / qpmin=0 / qpmax=69 / qpstep=4 / cplxblur=20.0 / qblur=0.5 / ip_ratio=1.40 / pb_ratio=1.30 / aq=2:0.80Основные цвета : BT.470-6 System B, BT.470-6 System G, BT.601-6 625, BT.1358 625, BT.1700 625 PAL, BT.1700 625 SECAMХарактеристики трансфера : BT.470-6 System B, BT.470-6 System GКоэффициенты матрицы : BT.470-6 System B, BT.470-6 System G, BT.601-6 625, BT.1358 625, BT.1700 625 PAL, BT.1700 625 SECAM, IEC 61966-2-4 601
АудиоИдентификатор : 2Формат : MPEG AudioВерсия формата : Version 1Профиль формата : Layer 2Идентификатор кодека : A_MPEG/L2Идентификатор кодека/Подсказка : MP2Продолжительность : 43 м.Вид битрейта : ПостоянныйБитрейт : 192 Кбит/секКаналы : 2 каналаЧастота : 48,0 КГцМетод сжатия : С потерямиРазмер потока : 60,4 Мбайт (5%)

h264 log

x264 [info]: frame I:539 Avg QP:17.27 size: 95440x264 [info]: frame P:14888 Avg QP:20.11 size: 35691x264 [info]: frame B:50518 Avg QP:22.33 size: 11299x264 [info]: consecutive B-frames: 1.6% 2.1% 12.7% 25.7% 15.0% 41.3% 1.2% 0.3% 0.0% 0.1%x264 [info]: mb I I16..4: 10.0% 76.3% 13.7%x264 [info]: mb P I16..4: 3.0% 16.9% 2.1% P16..4: 45.9% 15.1% 11.3% 0.4% 0.1% skip: 5.1%x264 [info]: mb B I16..4: 0.2% 1.4% 0.2% B16..8: 40.2% 7.0% 1.7% direct: 7.3% skip:42.0% L0:38.9% L1:51.2% BI:10.0%x264 [info]: 8x8 transform intra:76.5% inter:68.1%x264 [info]: direct mvs spatial:99.2% temporal:0.8%x264 [info]: coded y,uvDC,uvAC intra: 80.8% 74.5% 34.8% inter: 23.7% 21.9% 1.3%x264 [info]: i16 v,h,dc,p: 33% 20% 6% 41%x264 [info]: i8 v,h,dc,ddl,ddr,vr,hd,vl,hu: 15% 10% 4% 8% 12% 14% 12% 13% 12%x264 [info]: i4 v,h,dc,ddl,ddr,vr,hd,vl,hu: 15% 10% 2% 8% 14% 16% 13% 12% 11%x264 [info]: i8c dc,h,v,p: 34% 25% 23% 18%x264 [info]: Weighted P-Frames: Y:7.2% UV:5.0%x264 [info]: ref P L0: 48.2% 11.5% 19.5% 5.5% 5.0% 3.3% 3.2% 1.7% 1.9% 0.3% 0.0%x264 [info]: ref B L0: 87.8% 7.3% 2.1% 1.0% 0.7% 0.6% 0.3% 0.2%x264 [info]: ref B L1: 96.0% 4.0%x264 [info]: kb/s:3498.69
x264 [total]: encoded 65945 frames, 2.28 fps, 3498.69 kb/s

Внимание ! Раздача ведётся путём добавления новых серий

Внимание! Раздача ведётся путём добавления новых серий; при каждом добавлении создётся новый торрент. Чтобы начать докачку новой серии, пользователям необходимо сделать следующее:
(1) остановить скачивание,
(2) удалить старый торрент у себя из клиента (старые серии удалять не надо),
(3) скачать новый торрент и запустить его у себя в клиенте вместо старого, при этом указать клиенту путь в старую папку куда и должно происходить скачивание новых серий.
Ваш клиент при этом должен произвести хеширование (проверку) старой папки (если не производит сам - помогите ему сделать это), и будет докачивать только те серии которых у вас ещё нет. Старые серии при этом не удаляются, а продолжают раздаваться!
Eсли вы уже удалили старые серии, то предотвратить повторную закачку старых серий можно, отжав галочку в соответсвующих местах при запуске нового торрента. По возможности, желательно не удалять старые серии как можно дольше чтобы релизёр не столько продолжал раздавать старые серии, а смог сконцентрироваться на новых.

Скриншоты

-


Показать сообщения:    

Текущее время: 15-Дек 19:55

Часовой пояс: UTC ± 0


Вы не можете начинать темы
Вы не можете отвечать на сообщения
Вы не можете редактировать свои сообщения
Вы не можете удалять свои сообщения
Вы не можете голосовать в опросах
Вы не можете прикреплять файлы к сообщениям
Вы не можете скачивать файлы

!ВНИМАНИЕ!
Сайт не предоставляет электронные версии произведений, а занимается лишь коллекционированием и каталогизацией ссылок, присылаемых и публикуемых на форуме нашими читателями. Если вы являетесь правообладателем какого-либо представленного материала и не желаете, чтобы ссылка на него находилась в нашем каталоге, свяжитесь с нами, и мы незамедлительно удалим ее. Файлы для обмена на трекере предоставлены пользователями сайта, и администрация не несет ответственности за их содержание. Просьба не заливать файлы, защищенные авторскими правами, а также файлы нелегального содержания!